Tags
Language
Tags
November 2022
Su Mo Tu We Th Fr Sa
30 31 1 2 3 4 5
6 7 8 9 10 11 12
13 14 15 16 17 18 19
20 21 22 23 24 25 26
27 28 29 30 1 2 3

Romance at Reindeer Lodge (2017)

Posted By: Tavaz
1080p (FullHD) / HDTV IMDb
Romance at Reindeer Lodge (2017)

Romance at Reindeer Lodge (2017)
HDTV | MKV | 1920x1080 | English | H264 @ 9101 kbps | AC-3 @ 384 kbps | 1 h 23 min | 5.52 GiB
Subtitles: English
Genre: Romance

Molly and Jared have sworn off partaking in holiday activities, but find themselves at a Christmas themed ranch with no flights available to leave. Eventually, they find romance, and the spirit of Christmas revived in them again.

2450ccc89dca4764801709fb424856f0.mkv (5.5 GB)



General
Complete name : ./2450ccc89dca4764801709fb424856f0.mkv
Format : Matroska
Format version : Version 4 / Version 2
File size : 5.52 GiB
Duration : 1 h 23 min
Overall bit rate : 9 487 kb/s
Encoded date : UTC 2017-12-19 08:23:08
Writing application : mkvmerge v16.0.0 ('Protest') 64-bit
Writing library : libebml v1.3.5 + libmatroska v1.4.8

Video
ID : 1
Format : AVC
Format/Info : Advanced Video Codec
Format profile : High@L4.1
Format settings : CABAC / 4 Ref Frames
Format settings, CABAC : Yes
Format settings, RefFrames : 4 frames
Codec ID : V_MPEG4/ISO/AVC
Duration : 1 h 23 min
Bit rate : 9 101 kb/s
Width : 1 920 pixels
Height : 1 080 pixels
Display aspect ratio : 16:9
Frame rate mode : Constant
Frame rate : 23.976 (24000/1001) FPS
Color space : YUV
Chroma subsampling : 4:2:0
Bit depth : 8 bits
Scan type : Progressive
Bits/(Pixel*Frame) : 0.183
Stream size : 5.29 GiB (96%)
Writing library : x264 core 152 r2851 ba24899
Encoding settings : cabac=1 / ref=4 / deblock=1:0:0 / analyse=0x3:0x113 / me=hex / subme=8 / psy=1 / psy_rd=1.00:0.00 / mixed_ref=1 / me_range=16 / chroma_me=1 / trellis=2 / 8x8dct=1 / cqm=0 / deadzone=21,11 / fast_pskip=1 / chroma_qp_offset=-2 / threads=18 / lookahead_threads=3 / sliced_threads=0 / nr=0 / decimate=1 / interlaced=0 / bluray_compat=0 / constrained_intra=0 / bframes=3 / b_pyramid=2 / b_adapt=1 / b_bias=0 / direct=3 / weightb=1 / open_gop=0 / weightp=2 / keyint=250 / keyint_min=23 / scenecut=40 / intra_refresh=0 / rc_lookahead=50 / rc=crf / mbtree=1 / crf=17.0 / qcomp=0.60 / qpmin=0 / qpmax=69 / qpstep=4 / ip_ratio=1.40 / aq=1:1.00
Default : Yes
Forced : No

Audio
ID : 2
Format : AC-3
Format/Info : Audio Coding 3
Format settings, Endianness : Big
Codec ID : A_AC3
Duration : 1 h 23 min
Bit rate mode : Constant
Bit rate : 384 kb/s
Channel(s) : 6 channels
Channel positions : Front: L C R, Side: L R, LFE
Sampling rate : 48.0 kHz
Frame rate : 31.250 FPS (1536 SPF)
Bit depth : 16 bits
Compression mode : Lossy
Stream size : 229 MiB (4%)
Language : English
Service kind : Complete Main
Default : Yes
Forced : No

Text
ID : 3
Format : UTF-8
Codec ID : S_TEXT/UTF8
Codec ID/Info : UTF-8 Plain Text
Duration : 1 h 21 min
Bit rate : 102 b/s
Count of elements : 1630
Stream size : 61.1 KiB (0%)
Language : English
Default : No
Forced : No





Romance at Reindeer Lodge (2017)


Romance at Reindeer Lodge (2017)


Romance at Reindeer Lodge (2017)


Romance at Reindeer Lodge (2017)