Room 237 (2012)

Posted By: ParRus
Room 237 (2012)

Room 237 (2012)
WEBRip | English | AVI | 640 x 358 | XviD ~1182 Kbps | 24 fps
MP3 | 192 kbps | 48.0 KHz | 2 channels | 1h 42mn | 1021 MB
Genre: Documentary

A subjective documentary that explores the numerous theories about the hidden meanings within Stanley Kubrick's film The Shining. The film may be over 30 years old but it continues to inspire debate, speculation, and mystery. Five very different points of view are illuminated through voice over, film clips, animation and dramatic reenactments. Together they'll draw the audience into a new maze, one with endless detours and dead ends, many ways in, but no way out.
Director: Rodney Ascher
Stars: Bill Blakemore, Geoffrey Cocks, Juli Kearns
IMDB info

General
Complete name : Room.237.2012.avi
Format : AVI
Format/Info : Audio Video Interleave
File size : 1 021 MiB
Duration : 1h 42mn
Overall bit rate : 1 386 Kbps
Writing application : Lavf52.94.0
Video #0
ID : 0
Format : xvid
Codec ID : xvid
Duration : 1h 42mn
Bit rate : 1 182 Kbps
Width : 640 pixels
Height : 358 pixels
Display aspect ratio : 16:9
Frame rate : 24.000 fps
Bits/(Pixel*Frame) : 0.215
Stream size : 870 MiB (85%)
Audio #1
ID : 1
Format : MPEG Audio
Format version : Version 1
Format profile : Layer 3
Mode : Joint stereo
Codec ID : 55
Codec ID/Hint : MP3
Duration : 1h 42mn
Bit rate mode : Constant
Bit rate : 192 Kbps
Channel(s) : 2 channels
Sampling rate : 48.0 KHz
Compression mode : Lossy
Stream size : 141 MiB (14%)
Alignment : Aligned on interleaves
Interleave, duration : 24 ms (0.58 video frame)
Writing library : LAME3.98.4

ScreenShots

Room 237 (2012)

Room 237 (2012)

Room 237 (2012)

Room 237 (2012)

For more, Visit my AH-blog

no mirrors please, Follow The Rules