Rosem Films - Cursed for Gold (2008)

Posted By: Polik88
Rosem Films - Cursed for Gold (2008)

Rosem Films - Cursed for Gold (2008)
HDTV | English | MKV (H264) 29.970 fps 3425 Kbps | 1280x720 | AC3 192 Kbps 48.0 khz | 1h 26mn | 2.22 GB
Genre: Documentary

A new gold rush is sweeping through the Amazon rainforest where scores of women and men hunt for nuggets and specks of gold. But this race for gold is bringing on the destruction of one of the last earthly paradises, the world's largest tropical forest, the lungs of our planet, where everything and anything can be paid in gold. As a result, a gold ingot cycle has developed with its batch of insolvents, prostitutes, godfathers, traffickers, whether in French Guiana, Brazil or Suriname. Gold has brought upon disease, mercury, crime, alcoholism. Gold has turned creeks and rivers into dumping grounds. This cycle is that of the destruction of men by men. Whereas the Amazonian rainforest releases 300 tons of gold each year, it receives 120 tons of mercury. An uneven trade: treasure against poison. And as the backdrop, all sorts of traffics are arising: people, weapons, drugs. In the depths of this borderless jungle also lies the tragedy of the Wayanas, a Native American tribe from Guiana, who are being poisoned by mercury, the element essential to gold mining. The Wayanas are doomed by a looming disappearance. Congenital malformations have already been observed in children. The elderly are developing neurological disorders and cancers. Along with the outrage that is mercury comes another massacre of Indians.
General
Complete name : Cursed.for.Gold.mkv
Format : Matroska
Format version : Version 2
File size : 2.23 GiB
Duration : 1h 26mn
Overall bit rate : 3 691 Kbps
Encoded date : UTC 2012-12-17 09:26:56
Writing application : mkvmerge v5.8.0 ('No Sleep / Pillow') built on Sep 2 2012 15:37:04
Writing library : libebml v1.2.3 + libmatroska v1.3.0

Video
ID : 1
Format : AVC
Format/Info : Advanced Video Codec
Format profile : High@L4.1
Format settings, CABAC : Yes
Format settings, ReFrames : 8 frames
Muxing mode : Header stripping
Codec ID : V_MPEG4/ISO/AVC
Duration : 1h 26mn
Bit rate : 3 425 Kbps
Width : 1 280 pixels
Height : 720 pixels
Display aspect ratio : 16:9
Frame rate : 29.970 fps
Color space : YUV
Chroma subsampling : 4:2:0
Bit depth : 8 bits
Scan type : Progressive
Bits/(Pixel*Frame) : 0.124
Stream size : 2.07 GiB (93%)
Writing library : x264 core 125 r2200 999b753
Encoding settings : cabac=1 / ref=8 / deblock=1:-1:-1 / analyse=0x3:0x113 / me=esa / subme=8 / psy=1 / psy_rd=1.00:0.00 / mixed_ref=0 / me_range=30 / chroma_me=1 / trellis=2 / 8x8dct=1 / cqm=0 / deadzone=21,11 / fast_pskip=0 / chroma_qp_offset=-2 / threads=6 / lookahead_threads=1 / sliced_threads=0 / nr=0 / decimate=1 / interlaced=0 / bluray_compat=0 / constrained_intra=0 / bframes=5 / b_pyramid=0 / b_adapt=2 / b_bias=0 / direct=1 / weightb=1 / open_gop=0 / weightp=2 / keyint=300 / keyint_min=29 / scenecut=40 / intra_refresh=0 / rc_lookahead=40 / rc=crf / mbtree=1 / crf=20.0 / qcomp=0.60 / qpmin=10 / qpmax=51 / qpstep=4 / ip_ratio=1.40 / aq=1:1.05
Language : English
Default : Yes
Forced : No

Audio
ID : 2
Format : AC-3
Format/Info : Audio Coding 3
Mode extension : CM (complete main)
Format settings, Endianness : Big
Muxing mode : Header stripping
Codec ID : A_AC3
Duration : 1h 26mn
Bit rate mode : Constant
Bit rate : 192 Kbps
Channel(s) : 2 channels
Channel positions : Front: L R
Sampling rate : 48.0 KHz
Bit depth : 16 bits
Compression mode : Lossy
Stream size : 119 MiB (5%)
Default : Yes
Forced : No

Screenshots

Rosem Films - Cursed for Gold (2008)

Rosem Films - Cursed for Gold (2008)

Rosem Films - Cursed for Gold (2008)

no mirrors please, Follow The Rules
Visit Polik88 Blog Here
no password