Tags
Language
Tags

Rosie the Riveter (1944)

Posted By: Without
1080p (FullHD) / WEB-DL IMDb
Rosie the Riveter (1944)

Rosie the Riveter (1944)
WEBRip 1080p | MP4 | 1 h 14 min | 1.43 GB | 1440x1080 | AVC@2500 kb/s | English AAC@224 kb/s, 2 ch
WEB-DL 1080p | MKV | 1 h 14 min | 5.27 GB | 1440x1080 | AVC@10000 kb/s | English AC3@224 kb/s, 2 ch
Subs: English
Genre: Comedy | Musical | Romance | War

In wartime 1944 in California,defense plant workers Rosalind "Rosie" Warren and her friend Vera Watson must share, on a rotating schedule, the town's last available rental-room with Charlie Doran and Kelly Kennedy, who work the other shift at the plant. The landlady, Grandma Quill , also has her grandchildren, Buzz Prouty and Mabel Prouty , and her daughter Stella Prouty –-who is on the outs with her husband Clem –-living with her. Rosie doesn't tell her fiancé, Wayne Calhoun ,about the living arrangements, and is also plotting with Vera to re-unite the Proutys. Rosie pawns the engagement ring Wayne gave her for money for Clem and Stella. Rosie and Charlie fall in love and get their picture in the paper. Wayne huffingly breaks the engagement and wants his ring returned.



General
Rosie.the.Riveter.1944.1080p.WEBRip.x264.mp4
Format : MPEG-4
Format profile : Base Media
Codec ID : isom (isom/iso2/avc1/mp41)
File size : 1.43 GB
Duration : 1 h 14 min
Overall bit rate : 2730 kb/s
Encoded date : UTC 2021-02-28 15:56:59
Tagged date : UTC 2021-02-28 15:56:59
Writing application : Lavf58.20.100

Video
ID : 1
Format : AVC
Format/Info : Advanced Video Codec
Format profile : High@L4.1
Format settings, CABAC : Yes
Format settings, ReFrames : 4 frames
Codec ID : avc1
Codec ID/Info : Advanced Video Coding
Duration : 1 h 14 min
Bit rate : 2500 kb/s
Width : 1440 pixels
Height : 1080 pixels
Display aspect ratio : 4:3
Frame rate mode : Constant
Frame rate : 23.976 (23976/1000) FPS
Color space : YUV
Chroma subsampling : 4:2:0
Bit depth : 8 bits
Scan type : Progressive
Bits/(Pixel*Frame) : 0.067
Stream size : 1.31 GB (92%)
Writing library : x264 core 152 r2851M ba24899
Encoding settings : cabac=1 / ref=4 / deblock=1:-1:-1 / analyse=0x3:0x113 / me=umh / subme=9 / psy=1 / psy_rd=1.00:0.15 / mixed_ref=1 / me_range=24 / chroma_me=1 / trellis=2 / 8x8dct=1 / cqm=0 / deadzone=21,11 / fast_pskip=1 / chroma_qp_offset=-3 / threads=16 / lookahead_threads=4 / sliced_threads=0 / nr=0 / decimate=1 / interlaced=0 / bluray_compat=0 / constrained_intra=0 / bframes=3 / b_pyramid=2 / b_adapt=2 / b_bias=0 / direct=3 / weightb=1 / open_gop=0 / weightp=2 / keyint=250 / keyint_min=25 / scenecut=40 / intra_refresh=0 / rc_lookahead=50 / rc=2pass / mbtree=1 / bitrate=2500 / ratetol=1.0 / qcomp=0.60 / qpmin=0 / qpmax=69 / qpstep=4 / cplxblur=20.0 / qblur=0.5 / vbv_maxrate=31250 / vbv_bufsize=31250 / nal_hrd=none / filler=0 / ip_ratio=1.40 / aq=3:1.00
Encoded date : UTC 2021-02-28 15:56:59
Tagged date : UTC 2021-02-28 15:56:59

Audio
ID : 2
Format : AAC
Format/Info : Advanced Audio Codec
Format profile : LC
Codec ID : 40
Duration : 1 h 14 min
Bit rate mode : Constant
Bit rate : 224 kb/s
Channel(s) : 2 channels
Channel positions : Front: L R
Sampling rate : 48.0 kHz
Frame rate : 46.875 FPS (1024 spf)
Compression mode : Lossy
Stream size : 120 MB (8%)
Language : English
Default : Yes
Alternate group : 1
Encoded date : UTC 2021-02-28 15:56:59
Tagged date : UTC 2021-02-28 15:56:59


General
Rosie.the.Riveter.1944.1080p.WEB-DL.DD+2.0.H.264-SbR.mkv
Format : Matroska
Format version : Version 4 / Version 2
File size : 5.27 GB
Duration : 1 h 14 min
Overall bit rate : 10.1 Mb/s
Encoded date : UTC 2021-02-25 21:54:40
Writing application : mkvmerge v53.0.0 ('Fool's Gold') 64-bit
Writing library : libebml v1.4.1 + libmatroska v1.6.2
Cover : Yes
Attachments : cover.jpg

Video
ID : 1
Format : AVC
Format/Info : Advanced Video Codec
Format profile : High@L4
Format settings, CABAC : Yes
Format settings, ReFrames : 4 frames
Codec ID : V_MPEG4/ISO/AVC
Duration : 1 h 14 min
Bit rate mode : Constant
Bit rate : 10000 kb/s
Width : 1440 pixels
Height : 1080 pixels
Display aspect ratio : 4:3
Frame rate mode : Constant
Frame rate : 23.976 (24000/1001) FPS
Color space : YUV
Chroma subsampling : 4:2:0
Bit depth : 8 bits
Scan type : Progressive
Bits/(Pixel*Frame) : 0.268
Stream size : 5.15 GB (98%)
Language : English
Default : Yes
Forced : No
Color range : Limited
Color primaries : BT.709
Transfer characteristics : BT.709
Matrix coefficients : BT.709

Audio
ID : 2
Format : E-AC-3
Format/Info : Enhanced Audio Coding 3
Format settings, Endianness : Big
Codec ID : A_EAC3
Duration : 1 h 14 min
Bit rate mode : Constant
Bit rate : 224 kb/s
Channel(s) : 2 channels
Channel positions : Front: L R
Sampling rate : 48.0 kHz
Frame rate : 187.500 FPS (256 spf)
Compression mode : Lossy
Stream size : 120 MB (2%)
Language : English
Default : Yes
Forced : No

Text #1
ID : 3
Format : UTF-8
Codec ID : S_TEXT/UTF8
Codec ID/Info : UTF-8 Plain Text
Duration : 1 h 12 min
Bit rate : 92 b/s
Count of elements : 1472
Stream size : 48.9 KiB (0%)
Language : English
Default : No
Forced : No

Text #2
ID : 4
Format : UTF-8
Codec ID : S_TEXT/UTF8
Codec ID/Info : UTF-8 Plain Text
Duration : 1 h 13 min
Bit rate : 93 b/s
Count of elements : 1526
Stream size : 50.4 KiB (0%)
Title : SDH
Language : English
Default : No
Forced : No



WEBRip 1080p Screenshots

Rosie the Riveter (1944)

Rosie the Riveter (1944)

Rosie the Riveter (1944)


WEB-DL 1080p Screenshots

Rosie the Riveter (1944)

Rosie the Riveter (1944)

Rosie the Riveter (1944)


Come Visit My Blog (•‿•)