Tags
Language
Tags

Rudolph and Frosty's Christmas in July (1979)

Posted By: Tavaz
1080p (FullHD) / WEB-DL IMDb
Rudolph and Frosty's Christmas in July (1979)

Rudolph and Frosty's Christmas in July (1979)
WEB-DL | MKV | 1440x1080 | English | H264 @ 12993 kbps | E-AC-3 @ 224 kbps | 1 h 37 min | 8.99 GiB
Subtitles: English
Genre: Animation, Fantasy, Family

Long ago the Lady Borealis placed the evil Winterbolt under a magic spell, and put the last of her magic into the nose of a newborn reindeer: Rudolph. But now Winterbolt's awake. He gives Frosty's family magic amulets to keep them from melting until the Fourth of July so that Frosty and Rudolph can help Lilly's circus and Milton can marry his girlfriend on the high-wire, and Santa will use his sleigh to make sure everybody gets back to the North Pole in time…which leaves Winterbolt alone at the North Pole on the Fourth…

Rudolph.and.Frostys.Christmas.in.July.1979.1080p.AMZN.WEB-DL.DDP2.0.x264-ABM=be47b528998d40db9a8a68310eeb532c.part1.rar (4.7 GB)
Rudolph.and.Frostys.Christmas.in.July.1979.1080p.AMZN.WEB-DL.DDP2.0.x264-ABM=be47b528998d40db9a8a68310eeb532c.part2.rar (4.4 GB)



General
Unique ID : 209521660146054340713171672793187606078 (0x9DA06767C79483F6A3566CDB178FDE3E)
Complete name : ./Rudolph.and.Frostys.Christmas.in.July.1979.1080p.AMZN.WEB-DL.DDP2.0.x264-ABM.mkv
Format : Matroska
Format version : Version 4 / Version 2
File size : 8.99 GiB
Duration : 1 h 37 min
Overall bit rate mode : Variable
Overall bit rate : 13.2 Mb/s
Encoded date : UTC 2018-08-02 02:08:54
Writing application : mkvmerge v13.0.0 ('The Juggler') 64bit
Writing library : libebml v1.3.4 + libmatroska v1.4.5

Video
ID : 1
Format : AVC
Format/Info : Advanced Video Codec
Format profile : High@L4
Format settings : CABAC / 4 Ref Frames
Format settings, CABAC : Yes
Format settings, RefFrames : 4 frames
Codec ID : V_MPEG4/ISO/AVC
Duration : 1 h 37 min
Bit rate mode : Variable
Bit rate : 13.0 Mb/s
Maximum bit rate : 15.0 Mb/s
Width : 1 440 pixels
Height : 1 080 pixels
Display aspect ratio : 4:3
Frame rate mode : Constant
Frame rate : 23.976 (24000/1001) FPS
Color space : YUV
Chroma subsampling : 4:2:0
Bit depth : 8 bits
Scan type : Progressive
Bits/(Pixel*Frame) : 0.348
Stream size : 8.83 GiB (98%)
Writing library : x264 core 148 r2623 d5b2374
Encoding settings : cabac=1 / ref=4 / deblock=1:-1:-1 / analyse=0x3:0x133 / me=umh / subme=9 / psy=1 / psy_rd=1.00:0.15 / mixed_ref=1 / me_range=24 / chroma_me=1 / trellis=2 / 8x8dct=1 / cqm=0 / deadzone=21,11 / fast_pskip=1 / chroma_qp_offset=-3 / threads=34 / lookahead_threads=5 / sliced_threads=0 / nr=150 / decimate=1 / interlaced=0 / bluray_compat=0 / constrained_intra=0 / bframes=8 / b_pyramid=2 / b_adapt=2 / b_bias=0 / direct=3 / weightb=1 / open_gop=0 / weightp=2 / keyint=120 / keyint_min=61 / scenecut=0 / intra_refresh=0 / rc_lookahead=120 / rc=crf / mbtree=1 / crf=18.0 / qcomp=0.60 / qpmin=0 / qpmax=69 / qpstep=4 / vbv_maxrate=15000 / vbv_bufsize=31250 / crf_max=0.0 / nal_hrd=vbr / filler=0 / ip_ratio=1.40 / aq=3:1.00
Default : Yes
Forced : No
Color range : Limited
Color primaries : BT.709
Transfer characteristics : BT.709
Matrix coefficients : BT.709

Audio
ID : 2
Format : E-AC-3
Format/Info : Enhanced Audio Coding 3
Format settings, Endianness : Big
Codec ID : A_EAC3
Duration : 1 h 37 min
Bit rate mode : Constant
Bit rate : 224 kb/s
Channel(s) : 2 channels
Channel positions : Front: L R
Sampling rate : 48.0 kHz
Frame rate : 187.500 FPS (256 SPF)
Compression mode : Lossy
Stream size : 156 MiB (2%)
Language : English
Service kind : Complete Main
Default : Yes
Forced : No

Text #1
ID : 3
Format : UTF-8
Codec ID : S_TEXT/UTF8
Codec ID/Info : UTF-8 Plain Text
Duration : 1 h 36 min
Bit rate : 57 b/s
Count of elements : 1574
Stream size : 40.7 KiB (0%)
Language : English
Default : No
Forced : No

Text #2
ID : 4
Format : UTF-8
Codec ID : S_TEXT/UTF8
Codec ID/Info : UTF-8 Plain Text
Duration : 1 h 36 min
Bit rate : 61 b/s
Count of elements : 1674
Stream size : 43.0 KiB (0%)
Title : SDH
Language : English
Default : No
Forced : No





Rudolph and Frosty's Christmas in July (1979)


Rudolph and Frosty's Christmas in July (1979)


Rudolph and Frosty's Christmas in July (1979)


Rudolph and Frosty's Christmas in July (1979)


Rudolph and Frosty's Christmas in July (1979)