Tags
Language
Tags

KINO Classics - Rules for School (1947-1982)

Posted By: Tutorial
SD / DVDRip
KINO Classics - Rules for School (1947-1982)

KINO Classics - Rules for School (1947-1982)
DVDRip | 720 x 480 | .MP4/AVC @ 2689 Kbps | 3 h 13 min | 3.85 GB
Audio: English AAC 160 Kbps, 2 channels | Subs: English
Genre: Documentary

Prior to the era of the open classroom, schoolhouses were places of order and discipline. Assisting in the behavioral conditioning necessary for a smoothly-operating classroom, educational filmmakers often focused their attention on proper school-going etiquette.

This collection of films samples some of the subtle (and not-so-subtle) messages that were communicated to multiple generations of American youth, on topics such as safety, vandalism, and overzealous school spirit.

The films also serve as a time capsule of sorts, offering a fascinating glimpse into the concerns of parents and teachers about the threat and consequences of nonconformist behavior.

General
Complete name : Rules.for.School.mp4
Format : MPEG-4
Format profile : Base Media / Version 2
Codec ID : mp42 (isom/iso2/avc1/mp41)
File size : 3.85 GiB
Duration : 3 h 13 min
Overall bit rate mode : Variable
Overall bit rate : 2 856 kb/s
Encoded date : UTC 2019-01-15 15:05:21
Tagged date : UTC 2019-01-15 15:05:21
Writing application : HandBrake 1.1.0 2018040700

Video
ID : 1
Format : AVC
Format/Info : Advanced Video Codec
Format profile : Main@L3.1
Format settings, CABAC : Yes
Format settings, ReFrames : 4 frames
Codec ID : avc1
Codec ID/Info : Advanced Video Coding
Duration : 3 h 13 min
Bit rate : 2 689 kb/s
Width : 720 pixels
Height : 480 pixels
Display aspect ratio : 4:3
Original display aspect ratio : 4:3
Frame rate mode : Constant
Frame rate : 29.970 (30000/1001) FPS
Standard : NTSC
Color space : YUV
Chroma subsampling : 4:2:0
Bit depth : 8 bits
Scan type : Progressive
Bits/(Pixel*Frame) : 0.260
Stream size : 3.62 GiB (94%)
Writing library : x264 core 155 r2893 b00bcaf
Encoding settings : cabac=1 / ref=2 / deblock=1:0:0 / analyse=0x1:0x111 / me=hex / subme=6 / psy=1 / psy_rd=1.00:0.00 / mixed_ref=1 / me_range=16 / chroma_me=1 / trellis=1 / 8x8dct=0 / cqm=0 / deadzone=21,11 / fast_pskip=1 / chroma_qp_offset=-2 / threads=12 / lookahead_threads=2 / sliced_threads=0 / nr=0 / decimate=1 / interlaced=0 / bluray_compat=0 / constrained_intra=0 / bframes=3 / b_pyramid=2 / b_adapt=1 / b_bias=0 / direct=1 / weightb=1 / open_gop=0 / weightp=1 / keyint=300 / keyint_min=30 / scenecut=40 / intra_refresh=0 / rc_lookahead=30 / rc=crf / mbtree=1 / crf=21.0 / qcomp=0.60 / qpmin=0 / qpmax=69 / qpstep=4 / vbv_maxrate=14000 / vbv_bufsize=14000 / crf_max=0.0 / nal_hrd=none / filler=0 / ip_ratio=1.40 / aq=1:1.00
Encoded date : UTC 2019-01-15 15:05:21
Tagged date : UTC 2019-01-15 15:05:21
Color range : Limited
Color primaries : BT.601 NTSC
Transfer characteristics : BT.709
Matrix coefficients : BT.601
Menus : 3

Audio
ID : 2
Format : AAC
Format/Info : Advanced Audio Codec
Format profile : LC
Codec ID : 40
Duration : 3 h 13 min
Bit rate mode : Variable
Bit rate : 160 kb/s
Channel(s) : 2 channels
Channel positions : Front: L R
Sampling rate : 48.0 kHz
Frame rate : 46.875 FPS (1024 spf)
Compression mode : Lossy
Stream size : 221 MiB (6%)
Title : Stereo / Stereo
Language : English
Default : Yes
Alternate group : 1
Encoded date : UTC 2019-01-15 15:05:21
Tagged date : UTC 2019-01-15 15:05:21
Menus : 3

Menu
ID : 3
Codec ID : text
Duration : 3 h 13 min
Language : English
Encoded date : UTC 2019-01-15 15:05:21
Tagged date : UTC 2019-01-15 15:05:21
Menu For : 1,2
00:00:00.000 : Chapter 1
00:10:12.779 : Chapter 2
00:20:41.974 : Chapter 3
00:31:44.202 : Chapter 4
00:41:43.267 : Chapter 5
00:54:21.391 : Chapter 6
01:04:27.831 : Chapter 7
01:13:45.521 : Chapter 8
01:27:35.617 : Chapter 9
01:52:34.715 : Chapter 10
02:05:18.878 : Chapter 11
02:19:21.887 : Chapter 12
02:33:12.283 : Chapter 13
02:56:16.032 : Chapter 14
03:02:29.839 : Chapter 15
Bit rate mode : VBR
Screenshots

KINO Classics - Rules for School (1947-1982)

KINO Classics - Rules for School (1947-1982)

KINO Classics - Rules for School (1947-1982)

Welcome to my blog - daily update!

KINO Classics - Rules for School (1947-1982)