Tags
Language
Tags

Running with Beto (2019)

Posted By: Without
1080p (FullHD) / WEB-DL IMDb
Running with Beto (2019)

Running with Beto (2019)
WEB-DL | MKV | 1 h 31 min | 1.15 GB | 720x404 | AVC@1671 kb/s | English AAC@125 kb/s, 2 ch
WEB-DL 720p | MKV | 1 h 31 min | 3.85 GB | 1280x720 | AVC@5368 kb/s | English AC3@640 kb/s, 6 ch
WEB-DL 1080p | MKV | 1 h 31 min | 6.42 GB | 1920x1080 | AVC@9394 kb/s | English AC3@640 kb/s, 6 ch
Subs: English
Genre: Documentary

A behind-the-scenes documentary following Beto O'Rourke's breakaway campaign to unseat Ted Cruz in the U.S. Senate.

IMDB - 2 wins.


General
Running.with.Beto.2019.AMZN.WEB-DL.AAC2.0.H.264-NTG.mkv
Format : Matroska
Format version : Version 4 / Version 2
File size : 1.15 GB
Duration : 1 h 31 min
Overall bit rate : 1799 kb/s
Encoded date : UTC 2019-05-29 00:45:25
Writing application : mkvmerge v21.0.0 ('Tardigrades Will Inherit The Earth') 64-bit
Writing library : libebml v1.3.5 + libmatroska v1.4.8

Video
ID : 1
Format : AVC
Format/Info : Advanced Video Codec
Format profile : Main@L3
Format settings, CABAC : Yes
Format settings, ReFrames : 4 frames
Codec ID : V_MPEG4/ISO/AVC
Duration : 1 h 31 min
Bit rate mode : Constant
Bit rate : 1671 kb/s
Nominal bit rate : 2000 kb/s
Width : 720 pixels
Height : 404 pixels
Display aspect ratio : 16:9
Frame rate mode : Constant
Frame rate : 23.976 (24000/1001) FPS
Color space : YUV
Chroma subsampling : 4:2:0
Bit depth : 8 bits
Scan type : Progressive
Bits/(Pixel*Frame) : 0.240
Stream size : 1.07 GB (93%)
Default : Yes
Forced : No
Color range : Limited
Color primaries : BT.709
Transfer characteristics : BT.709
Matrix coefficients : BT.709

Audio
ID : 2
Format : AAC
Format/Info : Advanced Audio Codec
Format profile : LC
Codec ID : A_AAC
Duration : 1 h 31 min
Bit rate : 125 kb/s
Channel(s) : 2 channels
Channel positions : Front: L R
Sampling rate : 48.0 kHz
Frame rate : 46.875 FPS (1024 spf)
Compression mode : Lossy
Delay relative to video : 17 ms
Stream size : 82.2 MB (7%)
Language : English
Default : Yes
Forced : No

Text #1
ID : 3
Format : UTF-8
Codec ID : S_TEXT/UTF8
Codec ID/Info : UTF-8 Plain Text
Duration : 1 h 31 min
Bit rate : 100 b/s
Count of elements : 1870
Stream size : 67.3 KiB (0%)
Language : English
Default : No
Forced : No

Text #2
ID : 4
Format : UTF-8
Codec ID : S_TEXT/UTF8
Codec ID/Info : UTF-8 Plain Text
Duration : 1 h 31 min
Bit rate : 101 b/s
Count of elements : 1905
Stream size : 67.5 KiB (0%)
Title : SDH
Language : English
Default : No
Forced : No


General
Running.with.Beto.2019.720p.AMZN.WEB-DL.DDP5.1.H.264-NTG.mkv
Format : Matroska
Format version : Version 4 / Version 2
File size : 3.85 GB
Duration : 1 h 31 min
Overall bit rate : 6010 kb/s
Encoded date : UTC 2019-05-29 00:41:18
Writing application : mkvmerge v21.0.0 ('Tardigrades Will Inherit The Earth') 64-bit
Writing library : libebml v1.3.5 + libmatroska v1.4.8

Video
ID : 1
Format : AVC
Format/Info : Advanced Video Codec
Format profile : High@L3.1
Format settings, CABAC : Yes
Format settings, ReFrames : 4 frames
Codec ID : V_MPEG4/ISO/AVC
Duration : 1 h 31 min
Bit rate mode : Constant
Bit rate : 5368 kb/s
Nominal bit rate : 6000 kb/s
Width : 1280 pixels
Height : 720 pixels
Display aspect ratio : 16:9
Frame rate mode : Constant
Frame rate : 23.976 (24000/1001) FPS
Color space : YUV
Chroma subsampling : 4:2:0
Bit depth : 8 bits
Scan type : Progressive
Bits/(Pixel*Frame) : 0.243
Stream size : 3.44 GB (89%)
Default : Yes
Forced : No
Color range : Limited
Color primaries : BT.709
Transfer characteristics : BT.709
Matrix coefficients : BT.709

Audio
ID : 2
Format : E-AC-3
Format/Info : Enhanced Audio Coding 3
Format settings, Endianness : Big
Codec ID : A_EAC3
Duration : 1 h 31 min
Bit rate mode : Constant
Bit rate : 640 kb/s
Channel(s) : 6 channels
Channel positions : Front: L C R, Side: L R, LFE
Sampling rate : 48.0 kHz
Frame rate : 187.500 FPS (256 spf)
Compression mode : Lossy
Delay relative to video : 28 ms
Stream size : 419 MB (11%)
Language : English
Default : Yes
Forced : No

Text #1
ID : 3
Format : UTF-8
Codec ID : S_TEXT/UTF8
Codec ID/Info : UTF-8 Plain Text
Duration : 1 h 31 min
Bit rate : 100 b/s
Count of elements : 1870
Stream size : 67.3 KiB (0%)
Language : English
Default : No
Forced : No

Text #2
ID : 4
Format : UTF-8
Codec ID : S_TEXT/UTF8
Codec ID/Info : UTF-8 Plain Text
Duration : 1 h 31 min
Bit rate : 101 b/s
Count of elements : 1905
Stream size : 67.5 KiB (0%)
Title : SDH
Language : English
Default : No
Forced : No


General
Running.with.Beto.2019.1080p.AMZN.WEB-DL.DDP5.1.H.264-NTG.mkv
Format : Matroska
Format version : Version 4 / Version 2
File size : 6.42 GB
Duration : 1 h 31 min
Overall bit rate : 10.0 Mb/s
Encoded date : UTC 2019-05-29 00:38:00
Writing application : mkvmerge v21.0.0 ('Tardigrades Will Inherit The Earth') 64-bit
Writing library : libebml v1.3.5 + libmatroska v1.4.8

Video
ID : 1
Format : AVC
Format/Info : Advanced Video Codec
Format profile : High@L4
Format settings, CABAC : Yes
Format settings, ReFrames : 4 frames
Codec ID : V_MPEG4/ISO/AVC
Duration : 1 h 31 min
Bit rate mode : Constant
Bit rate : 9394 kb/s
Nominal bit rate : 10000 kb/s
Width : 1920 pixels
Height : 1080 pixels
Display aspect ratio : 16:9
Frame rate mode : Constant
Frame rate : 23.976 (24000/1001) FPS
Color space : YUV
Chroma subsampling : 4:2:0
Bit depth : 8 bits
Scan type : Progressive
Bits/(Pixel*Frame) : 0.189
Stream size : 6.01 GB (94%)
Default : Yes
Forced : No
Color range : Limited
Color primaries : BT.709
Transfer characteristics : BT.709
Matrix coefficients : BT.709

Audio
ID : 2
Format : E-AC-3
Format/Info : Enhanced Audio Coding 3
Format settings, Endianness : Big
Codec ID : A_EAC3
Duration : 1 h 31 min
Bit rate mode : Constant
Bit rate : 640 kb/s
Channel(s) : 6 channels
Channel positions : Front: L C R, Side: L R, LFE
Sampling rate : 48.0 kHz
Frame rate : 187.500 FPS (256 spf)
Compression mode : Lossy
Delay relative to video : 28 ms
Stream size : 419 MB (6%)
Language : English
Default : Yes
Forced : No

Text #1
ID : 3
Format : UTF-8
Codec ID : S_TEXT/UTF8
Codec ID/Info : UTF-8 Plain Text
Duration : 1 h 31 min
Bit rate : 100 b/s
Count of elements : 1870
Stream size : 67.3 KiB (0%)
Language : English
Default : No
Forced : No

Text #2
ID : 4
Format : UTF-8
Codec ID : S_TEXT/UTF8
Codec ID/Info : UTF-8 Plain Text
Duration : 1 h 31 min
Bit rate : 101 b/s
Count of elements : 1905
Stream size : 67.5 KiB (0%)
Title : SDH
Language : English
Default : No
Forced : No



WEB-DL Screenshots

Running with Beto (2019)

Running with Beto (2019)

Running with Beto (2019)


WEB-DL 720p Screenshots

Running with Beto (2019)

Running with Beto (2019)

Running with Beto (2019)


WEB-DL 1080p Screenshots

Running with Beto (2019)

Running with Beto (2019)

Running with Beto (2019)


Come Visit My Blog (•‿•)