Tags
Language
Tags

Rurouni Kenshin: The Beginning (2021)

Posted By: Tavaz
1080p (FullHD) / WEB-DL IMDb
Rurouni Kenshin: The Beginning (2021)

Rurouni Kenshin: The Beginning (2021)
WEB-DL | MKV | 1920x1080 | ภาษาไทย / Français / Deutsch / Español / Italiano / 日本語 / English / Português | H264 @ 3698 kbps | E-AC-3 @ 640 kbps | 2 h 18 min | 9.13 GiB
Subtitles: ภาษาไทย, Hrvatski, Français, tiếng Việt, Español, Magyar, 日本語, עברית, 한국어, Русский, Ελληνικά, Nederlands, Dansk, Bahasa Indonesia, Українська, 中文, Suomi, Polski, Türkçe, English, Română, العربية, Deutsch, Svenska, Italiano, Português, Čeština
Genre: Action, Drama, Adventure

Kenshin Himura goes up against mysterious weapons dealer Enishi. He controls the underworld of China. The secret of Kenshin Himura’s "Jujishou" is also revealed.

Rurouni.Kenshin.the.Beginning.2021.1080p.NF.WEB-DL.DDP5.1.x264-DoA=970ba98fb6f742ad859e61bae95ed8e4.part1.rar (4.8 GB)
Rurouni.Kenshin.the.Beginning.2021.1080p.NF.WEB-DL.DDP5.1.x264-DoA=970ba98fb6f742ad859e61bae95ed8e4.part2.rar (4.4 GB)



General
Unique ID : 273576976097440351894291787398978026856 (0xCDD10250308DB88D183D3FEB569D3D68)
Complete name : ./17808e078b1e28d5f02d574a26dc9951.mkv
Format : Matroska
Format version : Version 4 / Version 2
File size : 9.13 GiB
Duration : 2 h 18 min
Overall bit rate mode : Variable
Overall bit rate : 9 464 kb/s
Encoded date : UTC 2021-07-30 07:09:59
Writing application : mkvmerge v59.0.0 ('Shining Star') 64-bit
Writing library : libebml v1.4.2 + libmatroska v1.6.4 / Lavf58.31.104

Video
ID : 1
Format : AVC
Format/Info : Advanced Video Codec
Format profile : High@L4
Format settings : CABAC / 4 Ref Frames
Format settings, CABAC : Yes
Format settings, RefFrames : 4 frames
Codec ID : V_MPEG4/ISO/AVC
Duration : 2 h 18 min
Bit rate mode : Variable
Bit rate : 3 698 kb/s
Maximum bit rate : 20.0 Mb/s
Width : 1 920 pixels
Height : 1 080 pixels
Display aspect ratio : 16:9
Frame rate mode : Constant
Frame rate : 23.976 (24000/1001) FPS
Color space : YUV
Chroma subsampling : 4:2:0
Bit depth : 8 bits
Scan type : Progressive
Bits/(Pixel*Frame) : 0.074
Stream size : 3.57 GiB (39%)
Writing library : x264 core 148 r2722 1b0121b
Encoding settings : cabac=1 / ref=4 / deblock=1:0:0 / analyse=0x3:0x111 / me=umh / subme=10 / psy=1 / psy_rd=1.00:0.00 / mixed_ref=1 / me_range=120 / chroma_me=1 / trellis=2 / 8x8dct=1 / cqm=0 / deadzone=21,11 / fast_pskip=1 / chroma_qp_offset=-2 / threads=8 / lookahead_threads=2 / sliced_threads=0 / nr=0 / decimate=1 / interlaced=0 / bluray_compat=0 / stitchable=1 / constrained_intra=0 / bframes=16 / b_pyramid=2 / b_adapt=2 / b_bias=0 / direct=3 / weightb=1 / open_gop=0 / weightp=2 / keyint=240 / keyint_min=121 / scenecut=0 / intra_refresh=0 / rc_lookahead=240 / rc=crf / mbtree=1 / crf=18.0 / qcomp=0.50 / qpmin=6 / qpmax=51 / qpstep=4 / vbv_maxrate=20000 / vbv_bufsize=25000 / crf_max=0.0 / nal_hrd=vbr / filler=0 / ip_ratio=1.40 / aq=1:0.80
Default : Yes
Forced : No

Audio #1
ID : 2
Format : E-AC-3
Format/Info : Enhanced Audio Coding 3
Format settings, Endianness : Big
Codec ID : A_EAC3
Duration : 2 h 18 min
Bit rate mode : Constant
Bit rate : 640 kb/s
Channel(s) : 6 channels
Channel positions : Front: L C R, Side: L R, LFE
Sampling rate : 48.0 kHz
Frame rate : 187.500 FPS (256 SPF)
Bit depth : 32 bits
Compression mode : Lossy
Stream size : 633 MiB (7%)
Title : Brazilian Portuguese
Language : Portuguese
Service kind : Complete Main
Default : No
Forced : No

Audio #2
ID : 3
Format : E-AC-3
Format/Info : Enhanced Audio Coding 3
Format settings, Endianness : Big
Codec ID : A_EAC3
Duration : 2 h 18 min
Bit rate mode : Constant
Bit rate : 640 kb/s
Channel(s) : 6 channels
Channel positions : Front: L C R, Side: L R, LFE
Sampling rate : 48.0 kHz
Frame rate : 187.500 FPS (256 SPF)
Bit depth : 32 bits
Compression mode : Lossy
Stream size : 633 MiB (7%)
Title : English
Language : English
Service kind : Complete Main
Default : No
Forced : No

Audio #3
ID : 4
Format : E-AC-3
Format/Info : Enhanced Audio Coding 3
Format settings, Endianness : Big
Codec ID : A_EAC3
Duration : 2 h 18 min
Bit rate mode : Constant
Bit rate : 640 kb/s
Channel(s) : 6 channels
Channel positions : Front: L C R, Side: L R, LFE
Sampling rate : 48.0 kHz
Frame rate : 187.500 FPS (256 SPF)
Bit depth : 32 bits
Compression mode : Lossy
Stream size : 633 MiB (7%)
Title : European Spanish
Language : Spanish
Service kind : Complete Main
Default : No
Forced : No

Audio #4
ID : 5
Format : E-AC-3
Format/Info : Enhanced Audio Coding 3
Format settings, Endianness : Big
Codec ID : A_EAC3
Duration : 2 h 18 min
Bit rate mode : Constant
Bit rate : 640 kb/s
Channel(s) : 6 channels
Channel positions : Front: L C R, Side: L R, LFE
Sampling rate : 48.0 kHz
Frame rate : 187.500 FPS (256 SPF)
Bit depth : 32 bits
Compression mode : Lossy
Stream size : 633 MiB (7%)
Title : French
Language : French
Service kind : Complete Main
Default : No
Forced : No

Audio #5
ID : 6
Format : E-AC-3
Format/Info : Enhanced Audio Coding 3
Format settings, Endianness : Big
Codec ID : A_EAC3
Duration : 2 h 18 min
Bit rate mode : Constant
Bit rate : 640 kb/s
Channel(s) : 6 channels
Channel positions : Front: L C R, Side: L R, LFE
Sampling rate : 48.0 kHz
Frame rate : 187.500 FPS (256 SPF)
Bit depth : 32 bits
Compression mode : Lossy
Stream size : 633 MiB (7%)
Title : German
Language : German
Service kind : Complete Main
Default : No
Forced : No

Audio #6
ID : 7
Format : E-AC-3
Format/Info : Enhanced Audio Coding 3
Format settings, Endianness : Big
Codec ID : A_EAC3
Duration : 2 h 18 min
Bit rate mode : Constant
Bit rate : 640 kb/s
Channel(s) : 6 channels
Channel positions : Front: L C R, Side: L R, LFE
Sampling rate : 48.0 kHz
Frame rate : 187.500 FPS (256 SPF)
Bit depth : 32 bits
Compression mode : Lossy
Stream size : 633 MiB (7%)
Title : Italian
Language : Italian
Service kind : Complete Main
Default : No
Forced : No

Audio #7
ID : 8
Format : E-AC-3
Format/Info : Enhanced Audio Coding 3
Format settings, Endianness : Big
Codec ID : A_EAC3
Duration : 2 h 18 min
Bit rate mode : Constant
Bit rate : 640 kb/s
Channel(s) : 6 channels
Channel positions : Front: L C R, Side: L R, LFE
Sampling rate : 48.0 kHz
Frame rate : 187.500 FPS (256 SPF)
Bit depth : 32 bits
Compression mode : Lossy
Stream size : 633 MiB (7%)
Title : Japanese
Language : Japanese
Service kind : Complete Main
Default : Yes
Forced : No

Audio #8
ID : 9
Format : E-AC-3
Format/Info : Enhanced Audio Coding 3
Format settings, Endianness : Big
Codec ID : A_EAC3
Duration : 2 h 18 min
Bit rate mode : Constant
Bit rate : 640 kb/s
Channel(s) : 6 channels
Channel positions : Front: L C R, Side: L R, LFE
Sampling rate : 48.0 kHz
Frame rate : 187.500 FPS (256 SPF)
Bit depth : 32 bits
Compression mode : Lossy
Stream size : 633 MiB (7%)
Title : Spanish
Language : Spanish
Service kind : Complete Main
Default : No
Forced : No

Audio #9
ID : 10
Format : E-AC-3
Format/Info : Enhanced Audio Coding 3
Format settings, Endianness : Big
Codec ID : A_EAC3
Duration : 2 h 18 min
Bit rate mode : Constant
Bit rate : 640 kb/s
Channel(s) : 6 channels
Channel positions : Front: L C R, Side: L R, LFE
Sampling rate : 48.0 kHz
Frame rate : 187.500 FPS (256 SPF)
Bit depth : 32 bits
Compression mode : Lossy
Stream size : 633 MiB (7%)
Title : Thai
Language : Thai
Service kind : Complete Main
Default : No
Forced : No

Text #1
ID : 11
Format : UTF-8
Codec ID : S_TEXT/UTF8
Codec ID/Info : UTF-8 Plain Text
Duration : 2 h 16 min
Bit rate : 31 b/s
Count of elements : 793
Stream size : 31.8 KiB (0%)
Language : Arabic
Default : No
Forced : No

Text #2
ID : 12
Format : UTF-8
Codec ID : S_TEXT/UTF8
Codec ID/Info : UTF-8 Plain Text
Duration : 2 h 16 min
Bit rate : 21 b/s
Count of elements : 793
Stream size : 22.0 KiB (0%)
Language : Czech
Default : No
Forced : No

Text #3
ID : 13
Format : UTF-8
Codec ID : S_TEXT/UTF8
Codec ID/Info : UTF-8 Plain Text
Duration : 2 h 16 min
Bit rate : 22 b/s
Count of elements : 793
Stream size : 22.3 KiB (0%)
Language : Danish
Default : No
Forced : No

Text #4
ID : 14
Format : UTF-8
Codec ID : S_TEXT/UTF8
Codec ID/Info : UTF-8 Plain Text
Duration : 2 h 16 min
Bit rate : 23 b/s
Count of elements : 793
Stream size : 23.7 KiB (0%)
Language : German
Default : No
Forced : No

Text #5
ID : 15
Format : UTF-8
Codec ID : S_TEXT/UTF8
Codec ID/Info : UTF-8 Plain Text
Duration : 2 h 16 min
Bit rate : 40 b/s
Count of elements : 793
Stream size : 40.3 KiB (0%)
Language : Greek
Default : No
Forced : No

Text #6
ID : 16
Format : UTF-8
Codec ID : S_TEXT/UTF8
Codec ID/Info : UTF-8 Plain Text
Duration : 2 h 16 min
Bit rate : 21 b/s
Count of elements : 792
Stream size : 21.1 KiB (0%)
Language : English
Default : No
Forced : No

Text #7
ID : 17
Format : UTF-8
Codec ID : S_TEXT/UTF8
Codec ID/Info : UTF-8 Plain Text
Duration : 2 h 16 min
Bit rate : 22 b/s
Count of elements : 793
Stream size : 22.2 KiB (0%)
Title : Neutral
Language : Spanish
Default : No
Forced : No

Text #8
ID : 18
Format : UTF-8
Codec ID : S_TEXT/UTF8
Codec ID/Info : UTF-8 Plain Text
Duration : 2 h 16 min
Bit rate : 22 b/s
Count of elements : 793
Stream size : 22.2 KiB (0%)
Title : Castilian
Language : Spanish
Default : No
Forced : No

Text #9
ID : 19
Format : UTF-8
Codec ID : S_TEXT/UTF8
Codec ID/Info : UTF-8 Plain Text
Duration : 2 h 16 min
Bit rate : 22 b/s
Count of elements : 793
Stream size : 22.2 KiB (0%)
Language : Finnish
Default : No
Forced : No

Text #10
ID : 20
Format : UTF-8
Codec ID : S_TEXT/UTF8
Codec ID/Info : UTF-8 Plain Text
Duration : 2 h 16 min
Bit rate : 23 b/s
Count of elements : 794
Stream size : 23.7 KiB (0%)
Language : French
Default : No
Forced : No

Text #11
ID : 21
Format : UTF-8
Codec ID : S_TEXT/UTF8
Codec ID/Info : UTF-8 Plain Text
Duration : 2 h 16 min
Bit rate : 29 b/s
Count of elements : 793
Stream size : 29.1 KiB (0%)
Language : Hebrew
Default : No
Forced : No

Text #12
ID : 22
Format : UTF-8
Codec ID : S_TEXT/UTF8
Codec ID/Info : UTF-8 Plain Text
Duration : 2 h 16 min
Bit rate : 20 b/s
Count of elements : 793
Stream size : 20.4 KiB (0%)
Title : Croatian
Language : Croatian
Default : No
Forced : No

Text #13
ID : 23
Format : UTF-8
Codec ID : S_TEXT/UTF8
Codec ID/Info : UTF-8 Plain Text
Duration : 2 h 16 min
Bit rate : 21 b/s
Count of elements : 793
Stream size : 22.0 KiB (0%)
Language : Hungarian
Default : No
Forced : No

Text #14
ID : 24
Format : UTF-8
Codec ID : S_TEXT/UTF8
Codec ID/Info : UTF-8 Plain Text
Duration : 2 h 16 min
Bit rate : 22 b/s
Count of elements : 793
Stream size : 22.8 KiB (0%)
Language : Indonesian
Default : No
Forced : No

Text #15
ID : 25
Format : UTF-8
Codec ID : S_TEXT/UTF8
Codec ID/Info : UTF-8 Plain Text
Duration : 2 h 16 min
Bit rate : 22 b/s
Count of elements : 793
Stream size : 22.2 KiB (0%)
Language : Italian
Default : No
Forced : No

Text #16
ID : 26
Format : UTF-8
Codec ID : S_TEXT/UTF8
Codec ID/Info : UTF-8 Plain Text
Duration : 4 s 588 ms
Bit rate : 40 b/s
Count of elements : 1
Stream size : 23.0 Bytes (0%)
Title : Forced
Language : Japanese
Default : Yes
Forced : Yes

Text #17
ID : 27
Format : UTF-8
Codec ID : S_TEXT/UTF8
Codec ID/Info : UTF-8 Plain Text
Duration : 2 h 16 min
Bit rate : 35 b/s
Count of elements : 1016
Stream size : 35.1 KiB (0%)
Title : SDH
Language : Japanese
Default : No
Forced : No

Text #18
ID : 28
Format : UTF-8
Codec ID : S_TEXT/UTF8
Codec ID/Info : UTF-8 Plain Text
Duration : 2 h 16 min
Bit rate : 25 b/s
Count of elements : 805
Stream size : 25.3 KiB (0%)
Language : Korean
Default : No
Forced : No

Text #19
ID : 29
Format : UTF-8
Codec ID : S_TEXT/UTF8
Codec ID/Info : UTF-8 Plain Text
Duration : 2 h 16 min
Bit rate : 22 b/s
Count of elements : 795
Stream size : 23.0 KiB (0%)
Language : Malay
Default : No
Forced : No

Text #20
ID : 30
Format : UTF-8
Codec ID : S_TEXT/UTF8
Codec ID/Info : UTF-8 Plain Text
Duration : 2 h 16 min
Bit rate : 20 b/s
Count of elements : 793
Stream size : 20.9 KiB (0%)
Title : Bokmål
Language : Norwegian
Default : No
Forced : No

Text #21
ID : 31
Format : UTF-8
Codec ID : S_TEXT/UTF8
Codec ID/Info : UTF-8 Plain Text
Duration : 2 h 16 min
Bit rate : 21 b/s
Count of elements : 793
Stream size : 21.5 KiB (0%)
Language : Dutch
Default : No
Forced : No

Text #22
ID : 32
Format : UTF-8
Codec ID : S_TEXT/UTF8
Codec ID/Info : UTF-8 Plain Text
Duration : 2 h 16 min
Bit rate : 21 b/s
Count of elements : 793
Stream size : 21.3 KiB (0%)
Language : Polish
Default : No
Forced : No

Text #23
ID : 33
Format : UTF-8
Codec ID : S_TEXT/UTF8
Codec ID/Info : UTF-8 Plain Text
Duration : 2 h 16 min
Bit rate : 22 b/s
Count of elements : 793
Stream size : 22.4 KiB (0%)
Language : Portuguese
Default : No
Forced : No

Text #24
ID : 34
Format : UTF-8
Codec ID : S_TEXT/UTF8
Codec ID/Info : UTF-8 Plain Text
Duration : 2 h 16 min
Bit rate : 21 b/s
Count of elements : 793
Stream size : 21.7 KiB (0%)
Title : Brazilian
Language : Portuguese
Default : No
Forced : No

Text #25
ID : 35
Format : UTF-8
Codec ID : S_TEXT/UTF8
Codec ID/Info : UTF-8 Plain Text
Duration : 2 h 16 min
Bit rate : 22 b/s
Count of elements : 793
Stream size : 22.3 KiB (0%)
Language : Romanian
Default : No
Forced : No

Text #26
ID : 36
Format : UTF-8
Codec ID : S_TEXT/UTF8
Codec ID/Info : UTF-8 Plain Text
Duration : 2 h 16 min
Bit rate : 38 b/s
Count of elements : 793
Stream size : 38.2 KiB (0%)
Language : Russian
Default : No
Forced : No

Text #27
ID : 37
Format : UTF-8
Codec ID : S_TEXT/UTF8
Codec ID/Info : UTF-8 Plain Text
Duration : 2 h 16 min
Bit rate : 21 b/s
Count of elements : 793
Stream size : 21.7 KiB (0%)
Language : Swedish
Default : No
Forced : No

Text #28
ID : 38
Format : UTF-8
Codec ID : S_TEXT/UTF8
Codec ID/Info : UTF-8 Plain Text
Duration : 2 h 16 min
Bit rate : 63 b/s
Count of elements : 810
Stream size : 63.3 KiB (0%)
Language : Thai
Default : No
Forced : No

Text #29
ID : 39
Format : UTF-8
Codec ID : S_TEXT/UTF8
Codec ID/Info : UTF-8 Plain Text
Duration : 2 h 16 min
Bit rate : 22 b/s
Count of elements : 793
Stream size : 22.4 KiB (0%)
Language : Turkish
Default : No
Forced : No

Text #30
ID : 40
Format : UTF-8
Codec ID : S_TEXT/UTF8
Codec ID/Info : UTF-8 Plain Text
Duration : 2 h 16 min
Bit rate : 32 b/s
Count of elements : 793
Stream size : 32.9 KiB (0%)
Language : Ukrainian
Default : No
Forced : No

Text #31
ID : 41
Format : UTF-8
Codec ID : S_TEXT/UTF8
Codec ID/Info : UTF-8 Plain Text
Duration : 2 h 16 min
Bit rate : 29 b/s
Count of elements : 795
Stream size : 30.0 KiB (0%)
Language : Vietnamese
Default : No
Forced : No

Text #32
ID : 42
Format : UTF-8
Codec ID : S_TEXT/UTF8
Codec ID/Info : UTF-8 Plain Text
Duration : 2 h 16 min
Bit rate : 21 b/s
Count of elements : 793
Stream size : 22.0 KiB (0%)
Title : Simplified
Language : Chinese
Default : No
Forced : No

Text #33
ID : 43
Format : UTF-8
Codec ID : S_TEXT/UTF8
Codec ID/Info : UTF-8 Plain Text
Duration : 2 h 16 min
Bit rate : 22 b/s
Count of elements : 793
Stream size : 22.6 KiB (0%)
Title : Traditional
Language : Chinese
Default : No
Forced : No





Rurouni Kenshin: The Beginning (2021)


Rurouni Kenshin: The Beginning (2021)


Rurouni Kenshin: The Beginning (2021)


Rurouni Kenshin: The Beginning (2021)


Rurouni Kenshin: The Beginning (2021)