Tags
Language
Tags

S4C Dylan ar Daith - O Bow Street i Bolifia (2014)

Posted By: notbanned
720p (HD) / HDTV
S4C Dylan ar Daith - O Bow Street i Bolifia (2014)

S4C Dylan ar Daith - O Bow Street i Bolifia (2014)
HDTV | 1280x720 | .MKV/AVC @ 1941 Kbps | 48 min 3 s | 713 MiB
Audio: Welsh AAC 132 kbps, 2 channels | Subs: English
Genre: Documentary

From Bow Street to Bolivia. Dylan Iorwerth retraces the footsteps of diplomat, photographer, mountaineer and author Ifor Rees, who worked in South America for most of his life from the 1920s to the 1940s capturing on camera the mountains and local people. In the first edition, there is a look at his work in Bolivia, which was undertaken at a time of upheaval in the history of the country, with the killing of the president.

General
Unique ID : 61216273133154376228402042165466399107 (0x2E0DD34A3590166DE2839E7DDB6A8183)
Complete name : S4C.Dylan.ar.Daith.2014.O.Bow.Street.i.Bolifia.720p.mkv
Format : Matroska
Format version : Version 4 / Version 2
File size : 713 MiB
Duration : 48 min 3 s
Overall bit rate : 2 075 kb/s

Video
ID : 1
Format : AVC
Format/Info : Advanced Video Codec
Format profile : High@L3.1
Format settings, CABAC : Yes
Format settings, ReFrames : 4 frames
Codec ID : V_MPEG4/ISO/AVC
Duration : 48 min 3 s
Bit rate : 1 941 kb/s
Width : 1 280 pixels
Height : 720 pixels
Display aspect ratio : 16:9
Frame rate mode : Constant
Frame rate : 25.000 FPS
Color space : YUV
Chroma subsampling : 4:2:0
Bit depth : 8 bits
Scan type : Progressive
Bits/(Pixel*Frame) : 0.084
Stream size : 667 MiB (94%)
Encoding settings : cabac=1 / ref=4 / deblock=1:0:0 / analyse=0x3:0x113 / me=umh / subme=9 / psy=1 / psy_rd=1.00:0.00 / mixed_ref=1 / me_range=24 / chroma_me=1 / trellis=1 / 8x8dct=1 / cqm=0 / deadzone=21,11 / fast_pskip=0 / chroma_qp_offset=-2 / threads=18 / lookahead_threads=2 / sliced_threads=0 / nr=0 / decimate=1 / interlaced=0 / bluray_compat=0 / constrained_intra=0 / bframes=6 / b_pyramid=2 / b_adapt=2 / b_bias=0 / direct=1 / weightb=1 / open_gop=0 / weightp=2 / keyint=250 / keyint_min=25 / scenecut=40 / intra_refresh=0 / rc_lookahead=40 / rc=crf / mbtree=1 / crf=20.0 / qcomp=0.60 / qpmin=0 / qpmax=69 / qpstep=4 / ip_ratio=1.40 / aq=1:1.00
Language : Welsh
Default : Yes
Forced : No
Color range : Limited
Color primaries : BT.709
Transfer characteristics : BT.709
Matrix coefficients : BT.709

Audio
ID : 2
Format : AAC
Format/Info : Advanced Audio Codec
Format profile : LC
Codec ID : A_AAC
Duration : 48 min 2 s
Bit rate : 132 kb/s
Channel(s) : 2 channels
Channel positions : Front: L R
Sampling rate : 48.0 kHz
Frame rate : 46.875 FPS (1024 spf)
Compression mode : Lossy
Delay relative to video : 9 ms
Stream size : 45.4 MiB (6%)
Language : Welsh
Default : Yes
Forced : No

Text
ID : 3
Format : UTF-8
Codec ID : S_TEXT/UTF8
Codec ID/Info : UTF-8 Plain Text
Duration : 47 min 58 s
Bit rate : 79 b/s
Count of elements : 595
Stream size : 28.0 KiB (0%)
Language : English
Default : No
Forced : No


Screenshots:

S4C Dylan ar Daith - O Bow Street i Bolifia (2014)

S4C Dylan ar Daith - O Bow Street i Bolifia (2014)

S4C Dylan ar Daith - O Bow Street i Bolifia (2014)

S4C Dylan ar Daith - O Bow Street i Bolifia (2014)