Star Trek X: Nemesis / Звездный путь 10: Возмездие (2002) [ReUp]

Posted By: RSU75
Star Trek X: Nemesis / Звездный путь 10: Возмездие (2002) [ReUp]

Star Trek X: Nemesis / Звездный путь 10: Возмездие (2002)
BDRip | MKV | AVC 1280x544, ~ 4.0 Mbps | 1hr 56mn | 6.04 GB
English: AC3, 6 ch, 640 kbps; Spanish \ French \ Italian: AC3, 6 ch, 640 kbps; English(Commentary): AC3, 2 ch, 224 kbps; Russian: AC3, 2 ch, 192 kbps
Subtitles: English, Russian
Genre: Action | Adventure | Sci-Fi
IMDB Rating: 6.4/10 (48.246 votes)


Subtitles in other languages: subtitleseeker.com


Director: Stuart Baird
Writers: Gene Roddenberry (television series Star Trek), John Logan (story)
Stars: Patrick Stewart, Jonathan Frakes, Brent Spiner

Captain Jean-Luc Picard and his crew return to battle a chilling new adversary… that just happens to hold a shocking link to Picard! In the wake of a joyful wedding between William Riker and Deanna Troi, Picard receives another reason to celebrate: the Romulans want peace and the captain will be the Federation's emissary. But as the Enterprise heads towards Romulus, a brilliant villain awaits–harboring a diabolical plan of destruction and an unimaginable secret that will give Picard his most fearsome challenge. Shinzon, a Romulan-made clone of Picard, wants nothing less than the conquest of the Romulan Empire, the complete destruction of Earth and the death of Captain Picard himself.


Название: Звездный путь 10: Возмездие
Оригинальное название: Star Trek X: Nemesis
Год выпуска: 2002
Жанр: Фантастика, приключения
Выпущено: США
Режиссер: Стюарт Бейрд
В ролях: Патрик Стюарт, Джонатан Фрейкс, Брент Спайнер, ЛеВар Бёртон, Майкл Дорн, Гейтс МакФэдден

О фильме: После свадьбы командира Уильяма Райкера и советника Дианы Трой, экипаж корабля «Энтерпрайз» обнаруживает позитронный сигнал на одной из планет около нейтральной зоны, где они находят B-4, менее совершенный, чем Дейта, прототип андроида созданного доктором Сунгом.
Эта загадка остается неразгаданной, так как в то же время адмирал Джейнвей приказывает «Энтерпрайзу» отправиться к Ромулу, где сенат был свергнут в результате государственного переворота Шинзоном и его последователями.
По прибытию на Ромул, «Энтерпрайз» обнаруживает не только самый мощный из всех встреченных ими кораблей, но и страшную тайну касающуюся нового лидера Ромуланской Империи, который планирует использовать смертельное оружие для уничтожения всего живого на главной планете Федерации — Земле….

Русский перевод: Многоголосый закадровый, SDI Media



General
Unique ID : 212386010779466789132174538796357672697 (0x9FC80ECB842D4702AD8268F5491C5EF9)
Complete name : D:\ST10.Nemesis.7p.All1.mkv
Format : Matroska
Format version : Version 4 / Version 2
File size : 6.04 GiB
Duration : 1h 56mn
Overall bit rate : 7 427 Kbps
Movie name : Avaxhome.cc
Encoded date : UTC 2014-08-02 02:53:32
Writing application : mkvmerge v6.8.0 ('Theme for Great Cities') 32bit built on Mar 2 2014 21:27:07
Writing library : libebml v1.3.0 + libmatroska v1.4.1

Video
ID : 1
Format : AVC
Format/Info : Advanced Video Codec
Format profile : High@L4.0
Format settings, CABAC : Yes
Format settings, ReFrames : 9 frames
Codec ID : V_MPEG4/ISO/AVC
Duration : 1h 56mn
Bit rate : 4 000 Kbps
Width : 1 280 pixels
Height : 544 pixels
Display aspect ratio : 2.35:1
Frame rate mode : Constant
Frame rate : 23.976 fps
Color space : YUV
Chroma subsampling : 4:2:0
Bit depth : 8 bits
Scan type : Progressive
Bits/(Pixel*Frame) : 0.240
Stream size : 3.14 GiB (52%)
Title : StarTrekX.Nemesis
Writing library : x264 core 132 r2309 3b1f1f7
Encoding settings : cabac=1 / ref=9 / deblock=1:-1:-1 / analyse=0x3:0x133 / me=umh / subme=11 / psy=1 / psy_rd=1.00:0.00 / mixed_ref=1 / me_range=32 / chroma_me=1 / trellis=2 / 8x8dct=1 / cqm=0 / deadzone=21,11 / fast_pskip=0 / chroma_qp_offset=-2 / threads=6 / lookahead_threads=1 / sliced_threads=0 / nr=0 / decimate=1 / interlaced=0 / bluray_compat=0 / constrained_intra=0 / bframes=8 / b_pyramid=2 / b_adapt=2 / b_bias=0 / direct=3 / weightb=1 / open_gop=0 / weightp=2 / keyint=240 / keyint_min=23 / scenecut=40 / intra_refresh=0 / rc_lookahead=60 / rc=2pass / mbtree=1 / bitrate=4000 / ratetol=1.0 / qcomp=0.70 / qpmin=0 / qpmax=69 / qpstep=4 / cplxblur=20.0 / qblur=0.5 / ip_ratio=1.40 / aq=1:1.00
Language : English
Default : Yes
Forced : No

Audio #1
ID : 2
Format : AC-3
Format/Info : Audio Coding 3
Mode extension : CM (complete main)
Format settings, Endianness : Big
Codec ID : A_AC3
Duration : 1h 56mn
Bit rate mode : Constant
Bit rate : 640 Kbps
Channel(s) : 6 channels
Channel positions : Front: L C R, Side: L R, LFE
Sampling rate : 48.0 KHz
Bit depth : 16 bits
Compression mode : Lossy
Stream size : 533 MiB (9%)
Language : English
Default : Yes
Forced : No

Audio #2
ID : 3
Format : AC-3
Format/Info : Audio Coding 3
Format profile : Dolby Digital
Mode extension : CM (complete main)
Format settings, Endianness : Big
Codec ID : A_AC3
Duration : 1h 56mn
Bit rate mode : Constant
Bit rate : 192 Kbps
Channel(s) : 2 channels
Channel positions : Front: L R
Sampling rate : 48.0 KHz
Bit depth : 16 bits
Compression mode : Lossy
Stream size : 160 MiB (3%)
Title : SDI Media
Language : Russian
Default : No
Forced : No

Audio #3
ID : 6
Format : AC-3
Format/Info : Audio Coding 3
Mode extension : CM (complete main)
Format settings, Endianness : Big
Codec ID : A_AC3
Duration : 1h 56mn
Bit rate mode : Constant
Bit rate : 640 Kbps
Channel(s) : 6 channels
Channel positions : Front: L C R, Side: L R, LFE
Sampling rate : 48.0 KHz
Bit depth : 16 bits
Compression mode : Lossy
Stream size : 533 MiB (9%)
Language : Spanish
Default : No
Forced : No

Audio #4
ID : 7
Format : AC-3
Format/Info : Audio Coding 3
Mode extension : CM (complete main)
Format settings, Endianness : Big
Codec ID : A_AC3
Duration : 1h 56mn
Bit rate mode : Constant
Bit rate : 640 Kbps
Channel(s) : 6 channels
Channel positions : Front: L C R, Side: L R, LFE
Sampling rate : 48.0 KHz
Bit depth : 16 bits
Compression mode : Lossy
Stream size : 533 MiB (9%)
Language : French
Default : No
Forced : No

Audio #5
ID : 8
Format : AC-3
Format/Info : Audio Coding 3
Mode extension : CM (complete main)
Format settings, Endianness : Big
Codec ID : A_AC3
Duration : 1h 56mn
Bit rate mode : Constant
Bit rate : 640 Kbps
Channel(s) : 6 channels
Channel positions : Front: L C R, Side: L R, LFE
Sampling rate : 48.0 KHz
Bit depth : 16 bits
Compression mode : Lossy
Stream size : 533 MiB (9%)
Language : Italian
Default : No
Forced : No

Audio #6
ID : 9
Format : AC-3
Format/Info : Audio Coding 3
Format profile : Dolby Digital
Mode extension : CM (complete main)
Format settings, Endianness : Big
Codec ID : A_AC3
Duration : 1h 56mn
Bit rate mode : Constant
Bit rate : 224 Kbps
Channel(s) : 2 channels
Channel positions : Front: L R
Sampling rate : 48.0 KHz
Bit depth : 16 bits
Compression mode : Lossy
Stream size : 187 MiB (3%)
Title : Commentary
Language : English
Default : No
Forced : No

Audio #7
ID : 10
Format : AC-3
Format/Info : Audio Coding 3
Format profile : Dolby Digital
Mode extension : CM (complete main)
Format settings, Endianness : Big
Codec ID : A_AC3
Duration : 1h 56mn
Bit rate mode : Constant
Bit rate : 224 Kbps
Channel(s) : 2 channels
Channel positions : Front: L R
Sampling rate : 48.0 KHz
Bit depth : 16 bits
Compression mode : Lossy
Stream size : 187 MiB (3%)
Title : Commentary
Language : English
Default : No
Forced : No

Audio #8
ID : 11
Format : AC-3
Format/Info : Audio Coding 3
Format profile : Dolby Digital
Mode extension : CM (complete main)
Format settings, Endianness : Big
Codec ID : A_AC3
Duration : 1h 56mn
Bit rate mode : Constant
Bit rate : 224 Kbps
Channel(s) : 2 channels
Channel positions : Front: L R
Sampling rate : 48.0 KHz
Bit depth : 16 bits
Compression mode : Lossy
Stream size : 187 MiB (3%)
Title : Commentary
Language : English
Default : No
Forced : No

Text #1
ID : 4
Format : UTF-8
Codec ID : S_TEXT/UTF8
Codec ID/Info : UTF-8 Plain Text
Language : English
Default : No
Forced : No

Text #2
ID : 5
Format : UTF-8
Codec ID : S_TEXT/UTF8
Codec ID/Info : UTF-8 Plain Text
Language : Russian
Default : No
Forced : No

Menu
00:00:00.000 : en:00:00:00.000
00:04:15.296 : en:00:04:15.296
00:08:28.841 : en:00:08:28.841
00:12:00.678 : en:00:12:00.678
00:20:14.796 : en:00:20:14.796
00:23:21.858 : en:00:23:21.858
00:25:47.754 : en:00:25:47.754
00:28:14.484 : en:00:28:14.484
00:34:32.195 : en:00:34:32.195
00:38:42.820 : en:00:38:42.820
00:47:49.700 : en:00:47:49.700
00:51:54.736 : en:00:51:54.736
00:56:56.329 : en:00:56:56.329
01:02:19.735 : en:01:02:19.735
01:06:25.773 : en:01:06:25.773
01:09:49.435 : en:01:09:49.435
01:16:48.020 : en:01:16:48.020
01:20:37.624 : en:01:20:37.624
01:25:35.547 : en:01:25:35.547
01:31:34.906 : en:01:31:34.906
01:35:23.384 : en:01:35:23.384
01:40:29.940 : en:01:40:29.940
01:45:07.801 : en:01:45:07.801
01:49:21.179 : en:01:49:21.179



Screenshots (click to enlarge to original size):

Star Trek X: Nemesis / Звездный путь 10: Возмездие (2002) [ReUp]

Star Trek X: Nemesis / Звездный путь 10: Возмездие (2002) [ReUp]

Star Trek X: Nemesis / Звездный путь 10: Возмездие (2002) [ReUp]

Star Trek X: Nemesis / Звездный путь 10: Возмездие (2002) [ReUp]

Star Trek X: Nemesis / Звездный путь 10: Возмездие (2002) [ReUp]




–––––––––––––––––––––––––––––––––––––––-
>>> "Sci-Fi" <<< OR >>> "Star Trek" <<<
–––––––––––––––––––––––––––––––––––––––-
>>> Visit Blog RSU75 Here <<<
–––––––––––––––––––––––––––––––––––––––-