Tags
Language
Tags

Sacrilege (2017)

Posted By: Without
Sacrilege (2017)

Sacrilege (2017)
HDRip | AVI | 720x400 | XviD@1663 kb/s | English AC3@384 kb/s | 6 channels | 1 h 36 min | 1.38 GB
Genre: Horror

Carefree and desperate to avoid any responsibility, Jessica, a college student, visits a yard sale to buy a gift for her best friend. However, the music box she brings home is haunted by a vicious demonic entity eager to feed off the lives of all who hear the box's melody. After her best friend takes her own life, Jessica seeks the aid of two ghost hunters, but they too find themselves out of their depth. Desperate to free herself of the cursed box, she searches for the box's origin only to find that true evil begins with best of intentions.



General
Complete name : Sacrilege 2017.HDRip.XviD.AC3-EVO\Sacrilege 2017.HDRip.XviD.AC3-EVO.avi
Format : AVI
Format/Info : Audio Video Interleave
File size : 1.38 GiB
Duration : 1 h 36 min
Overall bit rate : 2 057 kb/s
Writing library : VirtualDub build 32593/release

Video
ID : 0
Format : MPEG-4 Visual
Format profile : Advanced Simple@L5
Format settings, BVOP : 2
Format settings, QPel : No
Format settings, GMC : No warppoints
Format settings, Matrix : Default (H.263)
Muxing mode : Packed bitstream
Codec ID : XVID
Codec ID/Hint : XviD
Duration : 1 h 36 min
Bit rate : 1 663 kb/s
Width : 720 pixels
Height : 400 pixels
Display aspect ratio : 16:9
Frame rate : 23.976 (24000/1001) FPS
Color space : YUV
Chroma subsampling : 4:2:0
Bit depth : 8 bits
Scan type : Progressive
Compression mode : Lossy
Bits/(Pixel*Frame) : 0.241
Stream size : 1.12 GiB (81%)
Writing library : XviD 66

Audio
ID : 1
Format : AC-3
Format/Info : Audio Coding 3
Mode extension : CM (complete main)
Format settings, Endianness : Big
Codec ID : 2000
Duration : 1 h 36 min
Bit rate mode : Constant
Bit rate : 384 kb/s
Channel(s) : 6 channels
Channel positions : Front: L C R, Side: L R, LFE
Sampling rate : 48.0 kHz
Frame rate : 31.250 FPS (1536 spf)
Bit depth : 16 bits
Compression mode : Lossy
Stream size : 265 MiB (19%)
Alignment : Aligned on interleaves
Interleave, duration : 42 ms (1.00 video frame)
Interleave, preload duration : 512 ms


HDRip Screenshots

Sacrilege (2017)

Sacrilege (2017)

Sacrilege (2017)


Come Visit My Blog (•‿•)