Tags
Language
Tags

Santiago Alvarez - La guerra necesaria aka The Necessary War (1980)

Posted By: InFocus
Santiago Alvarez - La guerra necesaria aka The Necessary War (1980)

Santiago Alvarez - La guerra necesaria aka The Necessary War (1980)
Spanish | DVDRip | 1h 50min | 624x384 | XviD - 1 774 Kbps | 29.970 fps | AC3 - 160 Kbps | 1.37 Gb
Subtitles - English
Genre: Documentary, Politics


Format : AVI
Format/Info : Audio Video Interleave
File size : 1.37 GiB
Duration : 1h 50mn
Overall bit rate : 1 774 Kbps

Video
ID : 0
Format : MPEG-4 Visual
Format profile : Simple@L3
Format settings, BVOP : No
Format settings, QPel : No
Format settings, GMC : No warppoints
Format settings, Matrix : Default (H.263)
Codec ID : XVID
Codec ID/Hint : XviD
Duration : 1h 50mn
Bit rate : 1 600 Kbps
Width : 624 pixels
Height : 384 pixels
Display aspect ratio : 1.625
Frame rate : 29.970 fps
Color space : YUV
Chroma subsampling : 4:2:0
Bit depth : 8 bits
Scan type : Progressive
Bits/(Pixel*Frame) : 0.223
Stream size : 1.23 GiB (90%)
Writing library : XviD 1.1.2 (UTC 2006-11-01)

Audio
ID : 1
Format : MPEG Audio
Format version : Version 1
Format profile : Layer 3
Mode : Joint stereo
Mode extension : MS Stereo
Codec ID : 55
Codec ID/Hint : MP3
Duration : 1h 50mn
Bit rate mode : Constant
Bit rate : 160 Kbps
Channel(s) : 2 channels
Sampling rate : 48.0 KHz
Stream size : 126 MiB (9%)
Alignment : Split accross interleaves
Interleave, duration : 24 ms (0.72 video frame)
Interleave, preload duration : 24 ms

Santiago Alvarez - La guerra necesaria aka The Necessary War (1980)

Santiago Alvarez - La guerra necesaria aka The Necessary War (1980)

Santiago Alvarez - La guerra necesaria aka The Necessary War (1980)