Tags
Language
Tags

School for Love / Futures vedettes (1955)

Posted By: RSU75
1080p (FullHD) / BDRip IMDb
School for Love / Futures vedettes (1955)

School for Love / Futures vedettes (1955)
BDRip 1080p | MKV | AVC, 1436x1080, ~ 3.7 Mbps | 1hr 36mn | 3.52 GB | French (Français): DTS, 2 ch, 1510 kbps
BDRip 720p | MKV | AVC, 956x720, ~ 2.5 Mbps | 1hr 36mn | 2.00 GB | French (Français): AC3, 2 ch, 448 kbps
Subtitles: English
Genre: Comedy, Drama



Director: Marc Allégret
Writers: Marc Allégret (adaptation), Vicki Baum (novel)
Stars: Jean Marais, Brigitte Bardot, Isabelle Pia

At the Conservatory of Vienna the student only have eyes for their beautiful singing teacher, tenor Eric Walter.

Extras:
- None




General
Unique ID : 246729875404815837852892453490401981784 (0xB99E720DB5E7C3069000E8B702E7B558)
Complete name : F:\SchoolForLove.1955.1p\SchoolForLove.1955.1p.mkv
Format : Matroska
Format version : Version 4 / Version 2
File size : 3.52 GiB
Duration : 1 h 36 min
Overall bit rate : 5 231 kb/s
Movie name : Release RSU75
Encoded date : UTC 2020-01-21 03:14:02
Writing application : mkvmerge v6.6.0 ('The Edge Of The In Between') built on Dec 1 2013 17:55:00
Writing library : libebml v1.3.0 + libmatroska v1.4.1

Video
ID : 1
Format : AVC
Format/Info : Advanced Video Codec
Format profile : High@L4.1
Format settings : CABAC / 4 Ref Frames
Format settings, CABAC : Yes
Format settings, ReFrames : 4 frames
Codec ID : V_MPEG4/ISO/AVC
Duration : 1 h 36 min
Bit rate : 3 700 kb/s
Width : 1 436 pixels
Height : 1 080 pixels
Display aspect ratio : 4:3
Frame rate mode : Constant
Frame rate : 23.976 (23976/1000) FPS
Color space : YUV
Chroma subsampling : 4:2:0
Bit depth : 8 bits
Scan type : Progressive
Bits/(Pixel*Frame) : 0.100
Stream size : 2.43 GiB (69%)
Writing library : x264 core 148 r2643 5c65704
Encoding settings : cabac=1 / ref=4 / deblock=1:0:0 / analyse=0x3:0x113 / me=umh / subme=8 / psy=1 / psy_rd=1.00:0.00 / mixed_ref=1 / me_range=24 / chroma_me=1 / trellis=1 / 8x8dct=1 / cqm=0 / deadzone=21,11 / fast_pskip=1 / chroma_qp_offset=-2 / threads=3 / lookahead_threads=1 / sliced_threads=0 / nr=0 / decimate=1 / interlaced=0 / bluray_compat=0 / constrained_intra=0 / bframes=3 / b_pyramid=0 / b_adapt=2 / b_bias=0 / direct=3 / weightb=1 / open_gop=0 / weightp=2 / keyint=250 / keyint_min=25 / scenecut=40 / intra_refresh=0 / rc_lookahead=40 / rc=abr / mbtree=1 / bitrate=3700 / ratetol=1.0 / qcomp=0.60 / qpmin=10 / qpmax=51 / qpstep=4 / ip_ratio=1.41 / aq=1:1.00
Language : English
Default : Yes
Forced : No

Audio
ID : 2
Format : DTS
Format/Info : Digital Theater Systems
Codec ID : A_DTS
Duration : 1 h 36 min
Bit rate mode : Constant
Bit rate : 1 509 kb/s
Channel(s) : 2 channels
Channel layout : L R
Sampling rate : 48.0 kHz
Frame rate : 93.750 FPS (512 SPF)
Bit depth : 16 bits
Compression mode : Lossy
Stream size : 1.02 GiB (29%)
Title : Stereo
Language : French
Default : Yes
Forced : No

Text
ID : 3
Format : PGS
Muxing mode : zlib
Codec ID : S_HDMV/PGS
Codec ID/Info : Picture based subtitle format used on BDs/HD-DVDs
Language : English
Default : Yes
Forced : No

Menu
00:00:00.000 : en:Chapter 01
00:10:15.333 : en:Chapter 02
00:19:49.166 : en:Chapter 03
00:30:24.125 : en:Chapter 04
00:42:36.416 : en:Chapter 05
00:58:45.208 : en:Chapter 06
01:21:31.208 : en:Chapter 07





General
Unique ID : 220970400249230647426834490430950599389 (0xA63D59DF7B864E5EBA27270EAA0DEADD)
Complete name : F:\SchoolForLove.1955.7p\SchoolForLove.1955.7p.mkv
Format : Matroska
Format version : Version 4 / Version 2
File size : 2.00 GiB
Duration : 1 h 36 min
Overall bit rate : 2 976 kb/s
Movie name : Release RSU75
Encoded date : UTC 2020-01-21 15:17:37
Writing application : mkvmerge v6.6.0 ('The Edge Of The In Between') built on Dec 1 2013 17:55:00
Writing library : libebml v1.3.0 + libmatroska v1.4.1

Video
ID : 1
Format : AVC
Format/Info : Advanced Video Codec
Format profile : High@L4.1
Format settings : CABAC / 4 Ref Frames
Format settings, CABAC : Yes
Format settings, ReFrames : 4 frames
Codec ID : V_MPEG4/ISO/AVC
Duration : 1 h 36 min
Bit rate : 2 500 kb/s
Width : 956 pixels
Height : 720 pixels
Display aspect ratio : 4:3
Frame rate mode : Constant
Frame rate : 23.976 (23976/1000) FPS
Color space : YUV
Chroma subsampling : 4:2:0
Bit depth : 8 bits
Scan type : Progressive
Bits/(Pixel*Frame) : 0.151
Stream size : 1.66 GiB (83%)
Writing library : x264 core 148 r2643 5c65704
Encoding settings : cabac=1 / ref=4 / deblock=1:0:0 / analyse=0x3:0x113 / me=umh / subme=8 / psy=1 / psy_rd=1.00:0.00 / mixed_ref=1 / me_range=24 / chroma_me=1 / trellis=1 / 8x8dct=1 / cqm=0 / deadzone=21,11 / fast_pskip=1 / chroma_qp_offset=-2 / threads=3 / lookahead_threads=1 / sliced_threads=0 / nr=0 / decimate=1 / interlaced=0 / bluray_compat=0 / constrained_intra=0 / bframes=3 / b_pyramid=0 / b_adapt=2 / b_bias=0 / direct=3 / weightb=1 / open_gop=0 / weightp=2 / keyint=250 / keyint_min=25 / scenecut=40 / intra_refresh=0 / rc_lookahead=40 / rc=abr / mbtree=1 / bitrate=2500 / ratetol=1.0 / qcomp=0.60 / qpmin=10 / qpmax=51 / qpstep=4 / ip_ratio=1.41 / aq=1:1.00
Language : English
Default : Yes
Forced : No

Audio
ID : 2
Format : AC-3
Format/Info : Audio Coding 3
Commercial name : Dolby Digital
Codec ID : A_AC3
Duration : 1 h 36 min
Bit rate mode : Constant
Bit rate : 448 kb/s
Channel(s) : 2 channels
Channel layout : L R
Sampling rate : 48.0 kHz
Frame rate : 31.250 FPS (1536 SPF)
Bit depth : 16 bits
Compression mode : Lossy
Stream size : 309 MiB (15%)
Title : Stereo
Language : French
Service kind : Complete Main
Default : Yes
Forced : No

Text
ID : 3
Format : PGS
Muxing mode : zlib
Codec ID : S_HDMV/PGS
Codec ID/Info : Picture based subtitle format used on BDs/HD-DVDs
Language : English
Default : Yes
Forced : No

Menu
00:00:00.000 : en:Chapter 01
00:10:15.333 : en:Chapter 02
00:19:49.166 : en:Chapter 03
00:30:24.125 : en:Chapter 04
00:42:36.416 : en:Chapter 05
00:58:45.208 : en:Chapter 06
01:21:31.208 : en:Chapter 07




Screenshots 1080p (click to enlarge to original size):

School for Love / Futures vedettes (1955)

School for Love / Futures vedettes (1955)

School for Love / Futures vedettes (1955)



Screenshots 720p (click to enlarge to original size):

School for Love / Futures vedettes (1955)






If you like this release please visit my blog
In it you will find "Blu-Ray", "BDRip" releases in different languages