Scotch Whisky - The Myth and the Magic (2003)

Posted By: Polik88
Scotch Whisky - The Myth and the Magic (2003)

Scotch Whisky - The Myth and the Magic (2003)
DVDRip | English | AVI (H264) 23.976 fps 1012 Kbps | 704x400 | AC3 192 Kbps 48.0 khz | 1h 2mn | 524 MB
Genre: Documentary

It has been said that Scotch Whisky is "the distillation of Scotland in a glass" and that "with every sip it speaks of the country of its birth". This engaging film explores the origins of whisky distillation in Scotland, discovers what goes into making Scotch and, most importantly, speaks to the people who actually make it, revealing a process that some will tell you is a "wild, weird alchemy". Beautifully filmed against the breathtaking scenery of Scotland to a fusion of traditional and contemporary music, this documentary features a host of interviews from the barley field to the boardroom, including stillmen, historians, distillery managers and even one of the SS Politician “whisky liberators” of “Whisky Galore” fame. Scotch Whisky - The Myth and the Magic is the most comprehensive film ever made about the most complex, romantic and popular spirit in the world.
General
Complete name : Scotch Whisky - The Myth and the Magic 2003.avi
Format : AVI
Format/Info : Audio Video Interleave
File size : 524 MiB
Duration : 1h 2mn
Overall bit rate : 1 176 Kbps
Writing application : Lavf52.17.0

Video
ID : 0
Format : AVC
Format/Info : Advanced Video Codec
Format profile : Baseline@L1.3
Format settings, CABAC : No
Format settings, ReFrames : 1 frame
Codec ID : H264
Duration : 1h 2mn
Bit rate : 1 012 Kbps
Width : 704 pixels
Height : 400 pixels
Display aspect ratio : 16:9
Frame rate : 23.976 fps
Color space : YUV
Chroma subsampling : 4:2:0
Bit depth : 8 bits
Scan type : Progressive
Bits/(Pixel*Frame) : 0.150
Stream size : 434 MiB (83%)
Writing library : x264 core 60
Encoding settings : cabac=0 / ref=1 / deblock=0:0:0 / analyse=0x1:0 / me=dia / subme=7 / brdo=0 / mixed_ref=0 / me_range=4 / chroma_me=1 / trellis=0 / 8x8dct=0 / cqm=0 / deadzone=21,11 / chroma_qp_offset=0 / threads=2 / nr=0 / decimate=1 / mbaff=0 / bframes=0 / keyint=250 / keyint_min=25 / scenecut=0(pre) / rc=abr / bitrate=1012 / ratetol=8.1 / rceq='tex^qComp' / qcomp=0.50 / qpmin=10 / qpmax=31 / qpstep=3 / ip_ratio=1.25 / aq=0

Audio
ID : 1
Format : AC-3
Format/Info : Audio Coding 3
Mode extension : CM (complete main)
Format settings, Endianness : Big
Codec ID : 2000
Duration : 1h 2mn
Bit rate mode : Constant
Bit rate : 192 Kbps
Channel(s) : 2 channels
Channel positions : Front: L R
Sampling rate : 48.0 KHz
Bit depth : 16 bits
Compression mode : Lossy
Stream size : 85.6 MiB (16%)
Alignment : Aligned on interleaves
Interleave, duration : 32 ms (0.77 video frame)
Interleave, preload duration : 32 ms

Screenshots

Scotch Whisky - The Myth and the Magic (2003)

Scotch Whisky - The Myth and the Magic (2003)

Scotch Whisky - The Myth and the Magic (2003)

no mirrors please, Follow The Rules
Visit Polik88 Blog Here
no password