Tags
Language
Tags

Smithsonian Ch. - Secrets Unlocked: Series 1 Part 26: Grave of the Vikings (2020)

Posted By:
1080p (FullHD) / HDTV
Smithsonian Ch. - Secrets Unlocked: Series 1 Part 26: Grave of the Vikings (2020)

Smithsonian Ch. - Secrets Unlocked: Series 1 Part 26: Grave of the Vikings (2020)
HDTV | 1920x1080 | .MKV/AVC @ 4500 Kbps | 22 min 0 s | 739 MiB
Audio: English AC3 192 kbps, 2 channels | Subs: English
Genre: Documentary

In November 2012, in the small town of Fregerslev, Denmark, a discovery was made at a construction site that stunned the archaeological world. Hundreds of exquisitely decorated pieces from a thousand-year-old horse's bridle. Forensic analysis pointed to this being the resting place of an eminent Viking warrior during a crucial point in history. Join the excavation as a team of scientists attempts to reveal the secrets of a tomb full of golden riches, a missing body, and evidence of the beginning of the end of the Viking Age.

General
Unique ID : 199490560947258331366212546307788712701 (0x96147C07DED43F51BE5A413849E92AFD)
Complete name : Scts.Unlocked.Grave.of.the.Vikings.1080p.mkv
Format : Matroska
Format version : Version 4 / Version 2
File size : 739 MiB
Duration : 22 min 0 s
Overall bit rate : 4 694 kb/s

Video
ID : 1
Format : AVC
Format/Info : Advanced Video Codec
Format profile : High@L4
Format settings, CABAC : Yes
Format settings, ReFrames : 2 frames
Codec ID : V_MPEG4/ISO/AVC
Duration : 22 min 0 s
Bit rate mode : Constant
Bit rate : 4 500 kb/s
Width : 1 920 pixels
Height : 1 080 pixels
Display aspect ratio : 16:9
Frame rate mode : Constant
Frame rate : 25.000 FPS
Color space : YUV
Chroma subsampling : 4:2:0
Bit depth : 8 bits
Scan type : Progressive
Bits/(Pixel*Frame) : 0.087
Stream size : 708 MiB (96%)
Language : English
Default : Yes
Forced : No

Audio
ID : 2
Format : AC-3
Format/Info : Audio Coding 3
Format settings, Endianness : Big
Codec ID : A_AC3
Duration : 22 min 0 s
Bit rate mode : Constant
Bit rate : 192 kb/s
Channel(s) : 2 channels
Channel positions : Front: L R
Sampling rate : 48.0 kHz
Frame rate : 31.250 FPS (1536 spf)
Bit depth : 16 bits
Compression mode : Lossy
Stream size : 30.2 MiB (4%)
Language : English
Service kind : Complete Main
Default : Yes
Forced : No

Text
ID : 3
Format : UTF-8
Codec ID : S_TEXT/UTF8
Codec ID/Info : UTF-8 Plain Text
Duration : 21 min 57 s
Bit rate : 109 b/s
Count of elements : 386
Stream size : 17.6 KiB (0%)
Language : English
Default : No
Forced : No


Screenshots:

Smithsonian Ch. - Secrets Unlocked: Series 1 Part 26: Grave of the Vikings (2020)

Smithsonian Ch. - Secrets Unlocked: Series 1 Part 26: Grave of the Vikings (2020)

Smithsonian Ch. - Secrets Unlocked: Series 1 Part 26: Grave of the Vikings (2020)

Smithsonian Ch. - Secrets Unlocked: Series 1 Part 26: Grave of the Vikings (2020)