Tags
Language
Tags

PBS - Secrets of the Dead: Mumbai Massacre (2010)

Posted By: notbanned
720p (HD) / HDTV IMDb
PBS - Secrets of the Dead: Mumbai Massacre (2010)

PBS - Secrets of the Dead: Mumbai Massacre (2010)
HDTV | 1280x720 | .MKV/AVC @ 1979 Kbps | 53 min 9 s | 899 MiB
Audio: English AC3 384 kbps, 2 channels | Subs: English
Genre: Documentary

Told from the perspective of victims and survivors in their own words, Mumbai Massacre places viewers inside the nightmarish 60 hours of orchestrated terrorism, broadcast live to the world via cell phones and internet, text and twitter. This program captures the desperation and courage of ordinary people, and how social media became a silent witness and simultaneously transformed news as it happened.

General
Unique ID : 214908128536443283020855877572688926246 (0xA1ADCCCD10D7F637BC480297AD08D626)
Complete name : Scts.of.the.dead.mumbia.massacre.proper.720p.mkv
Format : Matroska
Format version : Version 4 / Version 2
File size : 899 MiB
Duration : 53 min 9 s
Overall bit rate : 2 365 kb/s

Video
ID : 1
Format : AVC
Format/Info : Advanced Video Codec
Format profile : High@L4.1
Format settings, CABAC : Yes
Format settings, ReFrames : 5 frames
Codec ID : V_MPEG4/ISO/AVC
Duration : 53 min 9 s
Bit rate : 1 979 kb/s
Width : 1 280 pixels
Height : 720 pixels
Display aspect ratio : 16:9
Frame rate mode : Constant
Frame rate : 29.970 (30000/1001) FPS
Color space : YUV
Chroma subsampling : 4:2:0
Bit depth : 8 bits
Scan type : Progressive
Bits/(Pixel*Frame) : 0.072
Stream size : 752 MiB (84%)
Writing library : x264 core 157 r2970 5493be8
Encoding settings : cabac=1 / ref=5 / deblock=1:0:0 / analyse=0x3:0x113 / me=hex / subme=8 / psy=1 / psy_rd=1.00:0.00 / mixed_ref=1 / me_range=16 / chroma_me=1 / trellis=2 / 8x8dct=1 / cqm=0 / deadzone=21,11 / fast_pskip=1 / chroma_qp_offset=-2 / threads=12 / lookahead_threads=2 / sliced_threads=0 / nr=0 / decimate=1 / interlaced=0 / bluray_compat=0 / constrained_intra=0 / bframes=3 / b_pyramid=2 / b_adapt=1 / b_bias=0 / direct=3 / weightb=1 / open_gop=0 / weightp=2 / keyint=250 / keyint_min=25 / scenecut=40 / intra_refresh=0 / rc_lookahead=50 / rc=crf / mbtree=1 / crf=20.0 / qcomp=0.60 / qpmin=0 / qpmax=69 / qpstep=4 / ip_ratio=1.40 / aq=1:1.00
Default : Yes
Forced : No

Audio
ID : 2
Format : AC-3
Format/Info : Audio Coding 3
Format settings, Endianness : Big
Codec ID : A_AC3
Duration : 53 min 9 s
Bit rate mode : Constant
Bit rate : 384 kb/s
Channel(s) : 2 channels
Channel positions : Front: L R
Sampling rate : 48.0 kHz
Frame rate : 31.250 FPS (1536 spf)
Bit depth : 16 bits
Compression mode : Lossy
Stream size : 146 MiB (16%)
Language : English
Service kind : Complete Main
Default : Yes
Forced : No

Text
ID : 3
Format : UTF-8
Codec ID : S_TEXT/UTF8
Codec ID/Info : UTF-8 Plain Text
Duration : 52 min 31 s
Bit rate : 107 b/s
Count of elements : 746
Stream size : 41.5 KiB (0%)
Language : English
Default : No
Forced : No


Screenshots:

PBS - Secrets of the Dead: Mumbai Massacre (2010)

PBS - Secrets of the Dead: Mumbai Massacre (2010)

PBS - Secrets of the Dead: Mumbai Massacre (2010)

PBS - Secrets of the Dead: Mumbai Massacre (2010)