Tags
Language
Tags

Se Ci Conoscessimo Oggi (2018)

Posted By: JohnSmith
SD / WEB-DL IMDb
Se Ci Conoscessimo Oggi (2018)

Se Ci Conoscessimo Oggi / When We First Met (2018)
HDRip | MKV / XviD@1440 kb/s | 720x400 | 1h 37mn | 1.41 GB
Italian (dubbed): AC3, 640 kb/s (6 ch) | Subtitles: Italian (forced)
Genre: Comedy

Noah trascorre una serata perfetta con Avery, la ragazza dei suoi sogni, che però lo considera solamente un buon amico. Trascorre allora i successivi tre anni a chiedersi cosa sia andato storto. Un giorno, però, ha la possibilità inattesa di viaggiare indietro nel tempo e di cambiare quella sera e il suo destino più e più volte.




General
Unique ID : 198329530625291012128356253753681096431 (0x9534E0D0FA5EAE67BDECC603D28FAEEF)
Complete name : A:\Se.Ci.Conoscessimo.Oggi.2018.iTALiAN.WEBRiP.XviD-PRiME.mkv
Format : Matroska
Format version : Version 4 / Version 2
File size : 1.41 GiB
Duration : 1 h 37 min
Overall bit rate : 2 082 kb/s
Encoded date : UTC 2018-02-13 05:52:26
Writing application : mkvmerge v8.3.0 ('Over the Horizon') 64bit
Writing library : libebml v1.3.1 + libmatroska v1.4.2

Video
ID : 1
Format : MPEG-4 Visual
Format profile : Advanced Simple@L5
Format settings, BVOP : 2
Format settings, QPel : No
Format settings, GMC : No warppoints
Format settings, Matrix : Default (H.263)
Codec ID : V_MS/VFW/FOURCC / XVID
Codec ID/Hint : XviD
Duration : 1 h 37 min
Bit rate : 1 441 kb/s
Width : 720 pixels
Height : 400 pixels
Display aspect ratio : 16:9
Frame rate mode : Constant
Frame rate : 23.976 (23976/1000) FPS
Original frame rate : 23.976 (24000/1001) FPS
Color space : YUV
Chroma subsampling : 4:2:0
Bit depth : 8 bits
Scan type : Progressive
Compression mode : Lossy
Bits/(Pixel*Frame) : 0.209
Stream size : 1 000 MiB (69%)
Writing library : XviD 67
Default : Yes
Forced : No

Audio
ID : 2
Format : AC-3
Format/Info : Audio Coding 3
Format settings, Endianness : Big
Codec ID : A_AC3
Duration : 1 h 37 min
Bit rate mode : Constant
Bit rate : 640 kb/s
Channel(s) : 6 channels
Channel positions : Front: L C R, Side: L R, LFE
Sampling rate : 48.0 kHz
Frame rate : 31.250 FPS (1536 spf)
Bit depth : 16 bits
Compression mode : Lossy
Stream size : 444 MiB (31%)
Language : Italian
Service kind : Complete Main
Default : Yes
Forced : No

Text
ID : 3
Format : UTF-8
Codec ID : S_TEXT/UTF8
Codec ID/Info : UTF-8 Plain Text
Duration : 1 h 32 min
Bit rate : 1 b/s
Count of elements : 39
Stream size : 1.21 KiB (0%)
Title : Forced
Language : Italian
Default : Yes
Forced : Yes




Screenshots

Se Ci Conoscessimo Oggi (2018)

Se Ci Conoscessimo Oggi (2018)

Se Ci Conoscessimo Oggi (2018)