Tags
Language
Tags

Search Party S02E01

Posted By: Tavaz
720p (HD) / WEB-DL IMDb
Search Party S02E01

Search Party S02E01
WEB-DL | MKV | 1280x720 | English | H264 @ 4128 kbps | AC-3 @ 384 kbps | 22 min 49 s | 737 MiB
Subtitles: English
Genre: Commedia

A dark comedy about four self-absorbed twenty-somethings who become entangled in an ominous mystery when a former college acquaintance suddenly disappears.

Search.Party.2016.S02E01.Murder.REPACK.720p.iT.WEB-DL.DD5.1.H.264-BTN.mkv (737.0 MB)



General
Unique ID : 200861853781628292362570213151774587130 (0x971C95FCC6D7F81D811C80FBC3AFB8FA)
Complete name : ./Search.Party.2016.S02E01.Murder.REPACK.720p.iT.WEB-DL.DD5.1.H.264-BTN.mkv
Format : Matroska
Format version : Version 4 / Version 2
File size : 737 MiB
Duration : 22 min 49 s
Overall bit rate : 4 515 kb/s
Encoded date : UTC 2017-12-11 16:49:31
Writing application : mkvmerge v7.2.0 ('On Every Street') 64bit built on Sep 13 2014 15:52:10
Writing library : libebml v1.3.0 + libmatroska v1.4.1

Video
ID : 2
Format : AVC
Format/Info : Advanced Video Codec
Format profile : High@L3.1
Format settings : 2 Ref Frames
Format settings, CABAC : No
Format settings, RefFrames : 2 frames
Codec ID : V_MPEG4/ISO/AVC
Duration : 22 min 49 s
Bit rate : 4 129 kb/s
Width : 1 280 pixels
Height : 720 pixels
Display aspect ratio : 16:9
Frame rate mode : Constant
Frame rate : 23.976 FPS
Color space : YUV
Chroma subsampling : 4:2:0
Bit depth : 8 bits
Scan type : Progressive
Bits/(Pixel*Frame) : 0.187
Stream size : 674 MiB (91%)
Language : English
Default : Yes
Forced : No
Color range : Limited
Color primaries : BT.709
Transfer characteristics : BT.709
Matrix coefficients : BT.709

Audio
ID : 3
Format : AC-3
Format/Info : Audio Coding 3
Format settings, Endianness : Big
Codec ID : A_AC3
Duration : 22 min 49 s
Bit rate mode : Constant
Bit rate : 384 kb/s
Channel(s) : 6 channels
Channel positions : Front: L C R, Side: L R, LFE
Sampling rate : 48.0 kHz
Frame rate : 31.250 FPS (1536 SPF)
Bit depth : 16 bits
Compression mode : Lossy
Delay relative to video : 23 ms
Stream size : 62.7 MiB (9%)
Language : English
Service kind : Complete Main
Default : Yes
Forced : No

Text
ID : 1
Format : UTF-8
Codec ID : S_TEXT/UTF8
Codec ID/Info : UTF-8 Plain Text
Duration : 22 min 38 s
Bit rate : 145 b/s
Count of elements : 525
Stream size : 24.1 KiB (0%)
Language : English
Default : Yes
Forced : No





Search Party S02E01


Search Party S02E01


Search Party S02E01


Search Party S02E01


Search Party S02E01

All episodes