Tags
Language
Tags

Search Party S02E08

Posted By: Tavaz
1080p (FullHD) / WEB-DL IMDb
Search Party S02E08

Search Party S02E08
WEB-DL | MKV | 1920x1080 | English | H264 @ 5181 kbps | AC-3 @ 384 kbps | 22 min 33 s | 899 MiB
Subtitles: English
Genre: Commedia

A dark comedy about four self-absorbed twenty-somethings who become entangled in an ominous mystery when a former college acquaintance suddenly disappears.

a479fccf8dcf45c986a8fdb77929d541.mkv (898.6 MB)



General
Complete name : ./a479fccf8dcf45c986a8fdb77929d541.mkv
Format : Matroska
Format version : Version 4 / Version 2
File size : 899 MiB
Duration : 22 min 33 s
Overall bit rate : 5 567 kb/s
Encoded date : UTC 2017-12-11 15:47:44
Writing application : mkvmerge v7.2.0 ('On Every Street') 64bit built on Sep 13 2014 15:52:10
Writing library : libebml v1.3.0 + libmatroska v1.4.1

Video
ID : 2
Format : AVC
Format/Info : Advanced Video Codec
Format profile : High@L4
Format settings : CABAC / 4 Ref Frames
Format settings, CABAC : Yes
Format settings, RefFrames : 4 frames
Codec ID : V_MPEG4/ISO/AVC
Duration : 22 min 33 s
Bit rate : 5 181 kb/s
Width : 1 920 pixels
Height : 1 080 pixels
Display aspect ratio : 16:9
Frame rate mode : Constant
Frame rate : 23.976 (24000/1001) FPS
Color space : YUV
Chroma subsampling : 4:2:0
Bit depth : 8 bits
Scan type : Progressive
Bits/(Pixel*Frame) : 0.104
Stream size : 836 MiB (93%)
Language : English
Default : Yes
Forced : No
Color range : Limited
Color primaries : BT.709
Transfer characteristics : BT.709
Matrix coefficients : BT.709

Audio
ID : 3
Format : AC-3
Format/Info : Audio Coding 3
Format settings, Endianness : Big
Codec ID : A_AC3
Duration : 22 min 33 s
Bit rate mode : Constant
Bit rate : 384 kb/s
Channel(s) : 6 channels
Channel positions : Front: L C R, Side: L R, LFE
Sampling rate : 48.0 kHz
Frame rate : 31.250 FPS (1536 SPF)
Bit depth : 16 bits
Compression mode : Lossy
Stream size : 62.0 MiB (7%)
Language : English
Service kind : Complete Main
Default : Yes
Forced : No

Text
ID : 1
Format : UTF-8
Codec ID : S_TEXT/UTF8
Codec ID/Info : UTF-8 Plain Text
Duration : 22 min 29 s
Bit rate : 134 b/s
Count of elements : 519
Stream size : 22.2 KiB (0%)
Language : English
Default : Yes
Forced : No





Search Party S02E08


Search Party S02E08


Search Party S02E08


Search Party S02E08


Search Party S02E08

All episodes