Tags
Language
Tags

Search Party S02E10

Posted By: Tavaz
1080p (FullHD) / WEB-DL IMDb
Search Party S02E10

Search Party S02E10
WEB-DL | MKV | 1920x1080 | English | H264 @ 5141 kbps | AC-3 @ 384 kbps | 25 min 3 s | 1 011 MiB
Subtitles: English
Genre: Commedia

A dark comedy about four self-absorbed twenty-somethings who become entangled in an ominous mystery when a former college acquaintance suddenly disappears.

7b55195fddd248de8911b4739664caf3.mkv (1010.5 MB)



General
Complete name : ./7b55195fddd248de8911b4739664caf3.mkv
Format : Matroska
Format version : Version 4 / Version 2
File size : 1 011 MiB
Duration : 25 min 3 s
Overall bit rate : 5 637 kb/s
Encoded date : UTC 2017-12-11 17:22:36
Writing application : mkvmerge v7.2.0 ('On Every Street') 64bit built on Sep 13 2014 15:52:10
Writing library : libebml v1.3.0 + libmatroska v1.4.1

Video
ID : 2
Format : AVC
Format/Info : Advanced Video Codec
Format profile : High@L4
Format settings : CABAC / 4 Ref Frames
Format settings, CABAC : Yes
Format settings, RefFrames : 4 frames
Codec ID : V_MPEG4/ISO/AVC
Duration : 25 min 3 s
Bit rate : 5 141 kb/s
Width : 1 920 pixels
Height : 1 080 pixels
Display aspect ratio : 16:9
Frame rate mode : Constant
Frame rate : 23.976 (24000/1001) FPS
Color space : YUV
Chroma subsampling : 4:2:0
Bit depth : 8 bits
Scan type : Progressive
Bits/(Pixel*Frame) : 0.103
Stream size : 922 MiB (91%)
Language : English
Default : Yes
Forced : No
Color range : Limited
Color primaries : BT.709
Transfer characteristics : BT.709
Matrix coefficients : BT.709

Audio
ID : 3
Format : AC-3
Format/Info : Audio Coding 3
Format settings, Endianness : Big
Codec ID : A_AC3
Duration : 25 min 3 s
Bit rate mode : Constant
Bit rate : 384 kb/s
Channel(s) : 6 channels
Channel positions : Front: L C R, Side: L R, LFE
Sampling rate : 48.0 kHz
Frame rate : 31.250 FPS (1536 SPF)
Bit depth : 16 bits
Compression mode : Lossy
Stream size : 68.8 MiB (7%)
Language : English
Service kind : Complete Main
Default : Yes
Forced : No

Text
ID : 1
Format : UTF-8
Codec ID : S_TEXT/UTF8
Codec ID/Info : UTF-8 Plain Text
Language : English
Default : Yes
Forced : No





Search Party S02E10


Search Party S02E10


Search Party S02E10


Search Party S02E10


Search Party S02E10

All episodes