Discovery Channel - Secrets Of Bin Laden's Lair (2013)

Posted By: ParRus
Discovery Channel - Secrets Of Bin Laden's Lair (2013)

Discovery Channel - Secrets Of Bin Laden's Lair (2013)
HDTV | English | MKV | 1280 x 720 | AVC ~2550 Kbps | 25 fps
AC-3 | 384 kbps | 48.0 KHz | 2 channels | 00:43:41 | 935 MB
Genre: Documentary

When United States Navy SEALs from the Special Operations Forces (SOF) killed Osama Bin Laden during Operation Neptune Spear, they captured a prize far greater and more valuable than his body: a treasure trove of intelligence that included 10 hard drives, five computers, and more than 100 storage devices with 15,000 distinct separate documents, and between 15,000 – 25,000 snippets of video. Access to this top secret intelligence was granted to a select few outside the intelligence community. Discovery, in concert with NBC News, was given an exclusive briefing on the classified intelligence by a senior U.S. Counterterrorism official.
General
Complete name : Secrets.Of.Bin.Laden.s.Lair.mkv
Format : Matroska
Format version : Version 2
File size : 935 MiB
Duration : 43mn 41s
Overall bit rate : 2 994 Kbps
Encoded date : UTC 2013-02-01 01:28:38
Writing application : mkvmerge v5.3.0 ('I could have danced') built on Feb 9 2012 10:38:07
Writing library : libebml v1.2.3 + libmatroska v1.3.0
Video #1
ID : 1
Format : AVC
Format/Info : Advanced Video Codec
Format profile : High@L4.1
Format settings, CABAC : Yes
Format settings, ReFrames : 5 frames
Codec ID : V_MPEG4/ISO/AVC
Duration : 43mn 41s
Bit rate : 2 550 Kbps
Width : 1 280 pixels
Height : 720 pixels
Display aspect ratio : 16:9
Frame rate : 25.000 fps
Color space : YUV
Chroma subsampling : 4:2:0
Bit depth : 8 bits
Scan type : Progressive
Bits/(Pixel*Frame) : 0.111
Stream size : 797 MiB (85%)
Writing library : x264 core 129 r2230 1cffe9f
Encoding settings : cabac=1 / ref=5 / deblock=1:0:0 / analyse=0x3:0x113 / me=umh / subme=8 / psy=1 / psy_rd=1.00:0.00 / mixed_ref=1 / me_range=16 / chroma_me=1 / trellis=1 / 8x8dct=1 / cqm=0 / deadzone=21,11 / fast_pskip=1 / chroma_qp_offset=-2 / threads=18 / lookahead_threads=3 / sliced_threads=0 / nr=0 / decimate=1 / interlaced=0 / bluray_compat=0 / constrained_intra=0 / bframes=3 / b_pyramid=2 / b_adapt=2 / b_bias=0 / direct=3 / weightb=1 / open_gop=0 / weightp=2 / keyint=250 / keyint_min=25 / scenecut=40 / intra_refresh=0 / rc_lookahead=50 / rc=crf / mbtree=1 / crf=21.0 / qcomp=0.60 / qpmin=0 / qpmax=69 / qpstep=4 / ip_ratio=1.40 / aq=1:1.00
Audio #2
ID : 2
Format : AC-3
Format/Info : Audio Coding 3
Mode extension : CM (complete main)
Codec ID : A_AC3
Duration : 43mn 41s
Bit rate mode : Constant
Bit rate : 384 Kbps
Channel(s) : 6 channels
Channel positions : Front: L C R, Side: L R, LFE
Sampling rate : 48.0 KHz
Bit depth : 16 bits
Compression mode : Lossy
Delay relative to video : 64ms
Stream size : 120 MiB (13%)
Language : English

ScreenShots

Discovery Channel - Secrets Of Bin Laden's Lair (2013)

Discovery Channel - Secrets Of Bin Laden's Lair (2013)

Discovery Channel - Secrets Of Bin Laden's Lair (2013)

Discovery Channel - Secrets Of Bin Laden's Lair (2013)

For more, Visit my AH-blog

no mirrors please, Follow The Rules