Tags
Language
Tags

Smithsonian Channel - Secrets: Grave of the Vikings (2018)

Posted By:
1080p (FullHD) / WEB-DL IMDb
Smithsonian Channel - Secrets: Grave of the Vikings (2018)

Smithsonian Channel - Secrets: Grave of the Vikings (2018)
WEB-DL | 1920x1080 | .MKV/AVC @ 5968 Kbps | 44 min 11 s | 2.04 GiB
Audio: English EAC3 640 kbps, 6 channels | Subs: English
Genre: Documentary | History | Mystery

From the 8th to 11th century, the Vikings ruled what is now Scandinavia and terrorized Northern Europe. But a thousand years ago, these fearsome fighters disappeared from history. Now, a remarkable discovery in Denmark may finally explain what defeated this seemingly invincible nation. Follow a team of archaeologists as they excavate a fascinating burial site, use state-of-the-art X-ray technology to analyze their findings, and examine the life of an elite warrior.

General
Unique ID : 312209065072051693712615041978015864244 (0xEAE1475B0E1BCC247705195565D6D5B4)
Complete name : Secrets.Grave.of.the.Vikings.1080p.mkv
Format : Matroska
Format version : Version 4 / Version 2
File size : 2.04 GiB
Duration : 44 min 11 s
Overall bit rate : 6 610 kb/s

Video
ID : 1
Format : AVC
Format/Info : Advanced Video Codec
Format profile : High@L4
Format settings, CABAC : Yes
Format settings, ReFrames : 4 frames
Codec ID : V_MPEG4/ISO/AVC
Duration : 44 min 11 s
Bit rate : 5 968 kb/s
Width : 1 920 pixels
Height : 1 080 pixels
Display aspect ratio : 16:9
Frame rate mode : Constant
Frame rate : 25.000 FPS
Color space : YUV
Chroma subsampling : 4:2:0
Bit depth : 8 bits
Scan type : Progressive
Bits/(Pixel*Frame) : 0.115
Stream size : 1.84 GiB (90%)
Default : Yes
Forced : No
Color range : Limited
Color primaries : BT.709
Transfer characteristics : BT.709
Matrix coefficients : BT.709

Audio
ID : 2
Format : E-AC-3
Format/Info : Enhanced Audio Coding 3
Format settings, Endianness : Big
Codec ID : A_EAC3
Duration : 44 min 11 s
Bit rate mode : Constant
Bit rate : 640 kb/s
Channel(s) : 6 channels
Channel positions : Front: L C R, Side: L R, LFE
Sampling rate : 48.0 kHz
Frame rate : 187.500 FPS (256 spf)
Compression mode : Lossy
Stream size : 202 MiB (10%)
Language : English
Service kind : Complete Main
Default : Yes
Forced : No

Text
ID : 3
Format : UTF-8
Codec ID : S_TEXT/UTF8
Codec ID/Info : UTF-8 Plain Text
Duration : 43 min 54 s
Bit rate : 90 b/s
Count of elements : 803
Stream size : 29.0 KiB (0%)
Language : English
Default : No
Forced : No


Screenshots:

Smithsonian Channel - Secrets: Grave of the Vikings (2018)

Smithsonian Channel - Secrets: Grave of the Vikings (2018)

Smithsonian Channel - Secrets: Grave of the Vikings (2018)

Smithsonian Channel - Secrets: Grave of the Vikings (2018)