Tags
Language
Tags

Channel 4 - Secrets of the Stonehenge Skeletons (2013)

Posted By: Tutorial
SD / DVDRip
Channel 4 - Secrets of the Stonehenge Skeletons (2013)

Channel 4 - Secrets of the Stonehenge Skeletons (2013)
PDTV | 960 x 540 | .MP4/AVC @ 2011 Kbps | 46mn 40s | English AAC 128 kbps, 2 channels | 716 MB
Genre: Documentary

Stonehenge is Britain's greatest prehistoric monument and, for many centuries, has also provided perhaps our greatest prehistoric mystery. One man believes he has found the vital clues to solve this puzzle, and this programme follows him through a series of discoveries that rewrite the story of Stonehenge.
Buried beneath the stones are ancient bodies, and a research team led by world-renowned archaeologist Professor Mike Parker Pearson has been granted special permission to analyse them for the first time. The results of that investigation overturn the accepted view on when Stonehenge was built and what it was built for, providing compelling evidence that it once united the people of Britain. The programme proves that the monument we know today was not the original Stonehenge and answers the mystery of its sudden decline.

General
Complete name : Secrets.of.the.Stonehenge.Skeletons.mp4
Format : MPEG-4
Format profile : Base Media
Codec ID : isom
File size : 716 MiB
Duration : 46mn 40s
Overall bit rate mode : Variable
Overall bit rate : 2 144 Kbps
Encoded date : UTC 2013-03-10 23:31:18
Tagged date : UTC 2013-03-10 23:31:18
Writing application : Lavf51.12.1

Video
ID : 1
Format : AVC
Format/Info : Advanced Video Codec
Format profile : High@L3.1
Format settings, CABAC : No
Format settings, ReFrames : 1 frame
Format settings, GOP : M=1, N=12
Codec ID : avc1
Codec ID/Info : Advanced Video Coding
Duration : 46mn 40s
Bit rate : 2 011 Kbps
Width : 960 pixels

Height : 540 pixels
Display aspect ratio : 16:9
Frame rate mode : Constant
Frame rate : 25.000 fps
Color space : YUV
Chroma subsampling : 4:2:0
Bit depth : 8 bits
Scan type : Progressive
Bits/(Pixel*Frame) : 0.155
Stream size : 671 MiB (94%)
Encoded date : UTC 2013-03-10 23:31:18
Tagged date : UTC 2013-03-10 23:31:18

Audio
ID : 2
Format : AAC
Format/Info : Advanced Audio Codec
Format profile : LC
Codec ID : 40
Duration : 46mn 40s
Bit rate mode : Variable
Bit rate : 128 Kbps
Channel(s) : 2 channels
Channel positions : Front: L R
Sampling rate : 48.0 KHz
Compression mode : Lossy
Stream size : 42.7 MiB (6%)
Encoded date : UTC 2013-03-10 23:31:18
Tagged date : UTC 2013-03-10 23:31:18
Screenshots

Channel 4 - Secrets of the Stonehenge Skeletons (2013)

Channel 4 - Secrets of the Stonehenge Skeletons (2013)

Channel 4 - Secrets of the Stonehenge Skeletons (2013)

Channel 4 - Secrets of the Stonehenge Skeletons (2013)

Welcome to my blog - daily update!

Channel 4 - Secrets of the Stonehenge Skeletons (2013)