Please register here if you want to download anything!

If domain in your address bar is different from the list below
PLEASE LEAVE THAT SITE IMMEDIATELY
❗IT'S A DANGEROUS FAKE❗



Spicy Magazines for Men! ;-)

Serengeti (2019) [Complete Season 1]

Posted By: Without
1080p (FullHD) / WEB-DL IMDb
Serengeti (2019) [Complete Season 1]

Serengeti (2019)
WEB-DL 720p | MKV | 6 x ~58 min | ~2.50 GB | 1280x720 | AVC@ ~6000 kb/s | English AC3@640 kb/s
WEB-DL 1080p | MKV | 6 x ~58 min | ~4.10 GB | 1920x1080 | AVC@ ~10000 kb/s | English AC3@640 kb/s
Subs: English
Genre: Documentary

Wildlife docuseries examining the Serengeti region of Africa following different species of animals throughout their daily lives.



General
Serengeti.S01E01.Destiny.720p.AMZN.WEB-DL.DDP5.1.H.264-NTb.mkv
Format : Matroska
Format version : Version 4 / Version 2
File size : 2.59 GB
Duration : 58 min 15 s
Overall bit rate : 6361 kb/s
Encoded date : UTC 2019-07-10 23:05:32
Writing application : mkvmerge v35.0.0 ('All The Love In The World') 64-bit
Writing library : libebml v1.3.9 + libmatroska v1.5.2

Video
ID : 1
Format : AVC
Format/Info : Advanced Video Codec
Format profile : High@L3.1
Format settings, CABAC : Yes
Format settings, ReFrames : 4 frames
Codec ID : V_MPEG4/ISO/AVC
Duration : 58 min 15 s
Bit rate mode : Constant
Bit rate : 6000 kb/s
Width : 1280 pixels
Height : 720 pixels
Display aspect ratio : 16:9
Frame rate mode : Constant
Frame rate : 25.000 FPS
Color space : YUV
Chroma subsampling : 4:2:0
Bit depth : 8 bits
Scan type : Progressive
Bits/(Pixel*Frame) : 0.260
Stream size : 2.33 GB (90%)
Default : Yes
Forced : No
Color range : Limited
Color primaries : BT.709
Transfer characteristics : BT.709
Matrix coefficients : BT.709

Audio
ID : 2
Format : E-AC-3
Format/Info : Enhanced Audio Coding 3
Format settings, Endianness : Big
Codec ID : A_EAC3
Duration : 58 min 15 s
Bit rate mode : Constant
Bit rate : 640 kb/s
Channel(s) : 6 channels
Channel positions : Front: L C R, Side: L R, LFE
Sampling rate : 48.0 kHz
Frame rate : 187.500 FPS (256 spf)
Compression mode : Lossy
Stream size : 267 MB (10%)
Language : English
Default : Yes
Forced : No

Text
ID : 3
Format : UTF-8
Codec ID : S_TEXT/UTF8
Codec ID/Info : UTF-8 Plain Text
Duration : 57 min 24 s
Bit rate : 24 b/s
Count of elements : 299
Stream size : 10.5 KiB (0%)
Language : English
Default : No
Forced : No


General
Serengeti.S01E01.Destiny.1080p.AMZN.WEB-DL.DDP5.1.H.264-NTb.mkv
Format : Matroska
Format version : Version 4 / Version 2
File size : 4.16 GB
Duration : 58 min 15 s
Overall bit rate : 10.2 Mb/s
Encoded date : UTC 2019-07-10 23:04:53
Writing application : mkvmerge v35.0.0 ('All The Love In The World') 64-bit
Writing library : libebml v1.3.9 + libmatroska v1.5.2

Video
ID : 1
Format : AVC
Format/Info : Advanced Video Codec
Format profile : High@L4
Format settings, CABAC : Yes
Format settings, ReFrames : 4 frames
Codec ID : V_MPEG4/ISO/AVC
Duration : 58 min 15 s
Bit rate mode : Constant
Bit rate : 10000 kb/s
Width : 1920 pixels
Height : 1080 pixels
Display aspect ratio : 16:9
Frame rate mode : Constant
Frame rate : 25.000 FPS
Color space : YUV
Chroma subsampling : 4:2:0
Bit depth : 8 bits
Scan type : Progressive
Bits/(Pixel*Frame) : 0.193
Stream size : 3.90 GB (94%)
Default : Yes
Forced : No
Color range : Limited
Color primaries : BT.709
Transfer characteristics : BT.709
Matrix coefficients : BT.709

Audio
ID : 2
Format : E-AC-3
Format/Info : Enhanced Audio Coding 3
Format settings, Endianness : Big
Codec ID : A_EAC3
Duration : 58 min 15 s
Bit rate mode : Constant
Bit rate : 640 kb/s
Channel(s) : 6 channels
Channel positions : Front: L C R, Side: L R, LFE
Sampling rate : 48.0 kHz
Frame rate : 187.500 FPS (256 spf)
Compression mode : Lossy
Stream size : 267 MB (6%)
Language : English
Default : Yes
Forced : No

Text
ID : 3
Format : UTF-8
Codec ID : S_TEXT/UTF8
Codec ID/Info : UTF-8 Plain Text
Duration : 57 min 24 s
Bit rate : 24 b/s
Count of elements : 299
Stream size : 10.5 KiB (0%)
Language : English
Default : No
Forced : No



WEB-DL 720p Screenshots

Serengeti (2019) [Complete Season 1]

Serengeti (2019) [Complete Season 1]

Serengeti (2019) [Complete Season 1]

Serengeti (2019) [Complete Season 1]


WEB-DL 1080p Screenshots

Serengeti (2019) [Complete Season 1]

Serengeti (2019) [Complete Season 1]

Serengeti (2019) [Complete Season 1]

Serengeti (2019) [Complete Season 1]


Come Visit My Blog (•‿•)