Tags
Language
Tags
February 2023
Su Mo Tu We Th Fr Sa
29 30 31 1 2 3 4
5 6 7 8 9 10 11
12 13 14 15 16 17 18
19 20 21 22 23 24 25
26 27 28 1 2 3 4

HBO - Sergio (2009)

Posted By: Tutorial
SD / DVDRip
HBO - Sergio (2009)

HBO - Sergio (2009)
DVDRip | 714 x 480 | .MKV/AVC @ 2436 Kbps | 1 h 34 min | 1.84 GB
Audio 1: English AC-3 256 Kbps, 2 channels | Audio 2: English AAC 96.0 Kbps, 2 channels
Genre: Documentary

A look at the life and work of United Nations High Commissioner for Human Rights, Sergio Vieira de Mello, and the rescue operation when he was trapped and injured by a bomb explosion at UN headquarters in Baghdad

General
Unique ID : 297262161858034111045692431059669841421 (0xDFA29C2175E5EA5086FBD2907505760D)
Complete name : Sergio.DVD.mkv
Format : Matroska
Format version : Version 4 / Version 2
File size : 1.84 GiB
Duration : 1 h 34 min
Overall bit rate : 2 790 kb/s
Movie name : Sergio [2009] DVDRip - HJ
Encoded date : UTC 2019-12-11 20:58:39
Writing application : mkvmerge v41.0.0 ('Smarra') 64-bit
Writing library : libebml v1.3.9 + libmatroska v1.5.2

Video
ID : 1
Format : AVC
Format/Info : Advanced Video Codec
Format profile : High@L4.1
Format settings, CABAC : Yes
Format settings, ReFrames : 16 frames
Codec ID : V_MPEG4/ISO/AVC
Duration : 1 h 34 min
Bit rate : 2 436 kb/s
Width : 714 pixels
Height : 480 pixels
Display aspect ratio : 16:9
Frame rate mode : Constant
Frame rate : 23.976 (24000/1001) FPS
Color space : YUV
Chroma subsampling : 4:2:0
Bit depth : 8 bits
Scan type : Progressive
Bits/(Pixel*Frame) : 0.296
Stream size : 1.61 GiB (87%)
Writing library : x264 core 157 r2935 545de2f
Encoding settings : cabac=1 / ref=16 / deblock=1:-3:-3 / analyse=0x3:0x133 / me=umh / subme=10 / psy=1 / psy_rd=1.00:0.00 / mixed_ref=1 / me_range=32 / chroma_me=1 / trellis=2 / 8x8dct=1 / cqm=0 / deadzone=21,11 / fast_pskip=0 / chroma_qp_offset=-2 / threads=12 / lookahead_threads=3 / sliced_threads=0 / nr=0 / decimate=0 / interlaced=0 / bluray_compat=0 / constrained_intra=0 / bframes=16 / b_pyramid=2 / b_adapt=2 / b_bias=0 / direct=3 / weightb=1 / open_gop=0 / weightp=2 / keyint=240 / keyint_min=24 / scenecut=40 / intra_refresh=0 / rc_lookahead=60 / rc=crf / mbtree=0 / crf=17.2 / qcomp=0.60 / qpmin=0 / qpmax=69 / qpstep=4 / vbv_maxrate=62500 / vbv_bufsize=78125 / crf_max=0.0 / nal_hrd=none / filler=0 / ip_ratio=1.40 / pb_ratio=1.30 / aq=2:1.00
Language : English
Default : Yes
Forced : No
Color range : Limited
Color primaries : BT.601 NTSC
Transfer characteristics : BT.601
Matrix coefficients : BT.601

Audio #1
ID : 2
Format : AC-3
Format/Info : Audio Coding 3
Format settings, Endianness : Big
Codec ID : A_AC3
Duration : 1 h 34 min
Bit rate mode : Constant
Bit rate : 256 kb/s
Channel(s) : 2 channels
Channel positions : Front: L R
Sampling rate : 48.0 kHz
Frame rate : 31.250 FPS (1536 spf)
Bit depth : 16 bits
Compression mode : Lossy
Delay relative to video : -67 ms
Stream size : 173 MiB (9%)
Language : English
Service kind : Complete Main
Default : Yes
Forced : No

Audio #2
ID : 3
Format : AAC
Format/Info : Advanced Audio Codec
Format profile : LC
Codec ID : A_AAC
Duration : 1 h 34 min
Bit rate : 96.0 kb/s
Channel(s) : 2 channels
Channel positions : Front: L R
Sampling rate : 48.0 kHz
Frame rate : 46.875 FPS (1024 spf)
Compression mode : Lossy
Delay relative to video : -88 ms
Stream size : 65.0 MiB (3%)
Title : Commentary with Director Greg Barker
Language : English
Default : No
Forced : No

Menu
00:00:00.067 : :Citizen of the World
00:22:33.919 : :Picking Up The Pieces of Genocide
00:52:30.714 : :Winners and Losers
01:16:38.661 : :In the Field
01:30:12.974 : :Credits
Screenshots

HBO - Sergio (2009)

HBO - Sergio (2009)

Welcome to my blog - daily update!