Tags
Language
Tags

Sex, Lies, and Videotape (1989) [Criterion Collection]

Posted By: RSU75
1080p (FullHD) / BDRip IMDb
Sex, Lies, and Videotape (1989) [Criterion Collection]

Sex, Lies, and Videotape (1989) [Criterion Collection, Spine #938]
BDRip 1080p | MKV | AVC 1920x1040, ~ 4.1 Mbps | 1hr 40mn | 4.02 GB | English: DTS, 6 ch, 1510 kbps; English (Commentary): AC3, 2 ch, 192 kbps
BDRip 720 | MKV | AVC 1280x692, ~ 2.9 Mbps | 1hr 40mn | 2.46 GB | English: AC3, 6 ch, 448 kbps; English (Commentary): AC3, 2 ch, 192 kbps
Subtitles: English
Genre: Drama

Criterion.com


Director: Steven Soderbergh
Writers: Steven Soderbergh
Stars: James Spader, Andie MacDowell, Peter Gallagher

With his provocative feature debut, twenty-six-year-old Steven Soderbergh trained his focus on the complexities of human intimacy and deception in the modern age. Housewife Ann (Andie MacDowell) feels distant from her lawyer husband, John (Peter Gallagher), who is sleeping with her sister, Cynthia (Laura San Giacomo). When John’s old friend Graham (a magnetic, Cannes-award-winning James Spader) comes to town, Ann is drawn to the soft-spoken outsider, eventually uncovering his startling private obsession: videotaping women as they confess their deepest desires. A piercingly intelligent and flawlessly performed chamber piece, in which the video camera becomes a charged metaphor for the characters’ isolation, the Palme d’Or–winning sex, lies, and videotape changed the landscape of American film, helping pave the way for the thriving independent scene of the 1990s.



General
Unique ID : 246516510618195231534856364758277256392 (0xB9755A5B7DB9AEC190CF51BE1F3F74C8)
Complete name : F:\SexLiesAndVideotape.89.Cr.1p\SexLiesAndVideotape.89.Cr.1p.mkv
Format : Matroska
Format version : Version 4 / Version 2
File size : 4.02 GiB
Duration : 1 h 40 min
Overall bit rate : 5 754 kb/s
Movie name : Release RSU75
Encoded date : UTC 2018-10-01 04:21:39
Writing application : mkvmerge v6.6.0 ('The Edge Of The In Between') built on Dec 1 2013 17:55:00
Writing library : libebml v1.3.0 + libmatroska v1.4.1

Video
ID : 1
Format : AVC
Format/Info : Advanced Video Codec
Format profile : High@L4.1
Format settings : CABAC / 4 Ref Frames
Format settings, CABAC : Yes
Format settings, ReFrames : 4 frames
Codec ID : V_MPEG4/ISO/AVC
Duration : 1 h 40 min
Bit rate : 4 100 kb/s
Width : 1 920 pixels
Height : 1 040 pixels
Display aspect ratio : 1.85:1
Frame rate mode : Constant
Frame rate : 23.976 (23976/1000) FPS
Color space : YUV
Chroma subsampling : 4:2:0
Bit depth : 8 bits
Scan type : Progressive
Bits/(Pixel*Frame) : 0.086
Stream size : 2.75 GiB (68%)
Writing library : x264 core 148 r2643 5c65704
Encoding settings : cabac=1 / ref=4 / deblock=1:0:0 / analyse=0x3:0x113 / me=umh / subme=8 / psy=1 / psy_rd=1.00:0.00 / mixed_ref=1 / me_range=24 / chroma_me=1 / trellis=1 / 8x8dct=1 / cqm=0 / deadzone=21,11 / fast_pskip=1 / chroma_qp_offset=-2 / threads=3 / lookahead_threads=1 / sliced_threads=0 / nr=0 / decimate=1 / interlaced=0 / bluray_compat=0 / constrained_intra=0 / bframes=3 / b_pyramid=0 / b_adapt=2 / b_bias=0 / direct=3 / weightb=1 / open_gop=0 / weightp=2 / keyint=250 / keyint_min=25 / scenecut=40 / intra_refresh=0 / rc_lookahead=40 / rc=abr / mbtree=1 / bitrate=4100 / ratetol=1.0 / qcomp=0.60 / qpmin=10 / qpmax=51 / qpstep=4 / ip_ratio=1.41 / aq=1:1.00
Language : English
Default : Yes
Forced : No

Audio #1
ID : 2
Format : DTS 96/24
Format/Info : Digital Theater Systems
Commercial name : DTS 96/24
Codec ID : A_DTS
Duration : 1 h 40 min
Bit rate mode : Constant
Bit rate : 1 509 kb/s
Channel(s) : 6 channels
Channel layout : C L R Ls Rs LFE
Sampling rate : 96.0 kHz
Frame rate : 187.500 FPS (512 SPF)
Bit depth : 24 bits
Compression mode : Lossy
Stream size : 1.06 GiB (26%)
Language : English
Default : Yes
Forced : No

Audio #2
ID : 3
Format : AC-3
Format/Info : Audio Coding 3
Commercial name : Dolby Digital
Codec ID : A_AC3
Duration : 1 h 40 min
Bit rate mode : Constant
Bit rate : 192 kb/s
Channel(s) : 2 channels
Channel layout : L R
Sampling rate : 48.0 kHz
Frame rate : 31.250 FPS (1536 SPF)
Bit depth : 16 bits
Compression mode : Lossy
Stream size : 138 MiB (3%)
Title : Commentary
Language : English
Service kind : Complete Main
Default : No
Forced : No

Text
ID : 4
Format : PGS
Muxing mode : zlib
Codec ID : S_HDMV/PGS
Codec ID/Info : Picture based subtitle format used on BDs/HD-DVDs
Language : English
Default : Yes
Forced : No

Menu
00:00:00.000 : en:Chapter 01
00:05:28.745 : en:Chapter 02
00:11:05.206 : en:Chapter 03
00:14:56.520 : en:Chapter 04
00:20:40.155 : en:Chapter 05
00:22:50.535 : en:Chapter 06
00:30:25.240 : en:Chapter 07
00:34:04.959 : en:Chapter 08
00:40:20.876 : en:Chapter 09
00:49:59.496 : en:Chapter 10
00:54:01.571 : en:Chapter 11
00:57:02.669 : en:Chapter 12
01:06:39.745 : en:Chapter 13
01:09:12.022 : en:Chapter 14
01:17:07.331 : en:Chapter 15
01:34:05.431 : en:Chapter 16
01:37:38.269 : en:Chapter 17





General
Unique ID : 188205212414337440862579708614106613379 (0x8D970163B844553ABAF44AFD27C70683)
Complete name : F:\SexLiesAndVideotape.89.Cr.7p\SexLiesAndVideotape.89.Cr.7p.mkv
Format : Matroska
Format version : Version 4 / Version 2
File size : 2.46 GiB
Duration : 1 h 40 min
Overall bit rate : 3 512 kb/s
Movie name : Release RSU75
Encoded date : UTC 2018-10-01 04:32:19
Writing application : mkvmerge v6.6.0 ('The Edge Of The In Between') built on Dec 1 2013 17:55:00
Writing library : libebml v1.3.0 + libmatroska v1.4.1

Video
ID : 1
Format : AVC
Format/Info : Advanced Video Codec
Format profile : High@L4.1
Format settings : CABAC / 4 Ref Frames
Format settings, CABAC : Yes
Format settings, ReFrames : 4 frames
Codec ID : V_MPEG4/ISO/AVC
Duration : 1 h 40 min
Bit rate : 2 900 kb/s
Width : 1 280 pixels
Height : 692 pixels
Display aspect ratio : 1.85:1
Frame rate mode : Constant
Frame rate : 23.976 (23976/1000) FPS
Color space : YUV
Chroma subsampling : 4:2:0
Bit depth : 8 bits
Scan type : Progressive
Bits/(Pixel*Frame) : 0.137
Stream size : 1.96 GiB (80%)
Writing library : x264 core 148 r2643 5c65704
Encoding settings : cabac=1 / ref=4 / deblock=1:0:0 / analyse=0x3:0x113 / me=umh / subme=8 / psy=1 / psy_rd=1.00:0.00 / mixed_ref=1 / me_range=24 / chroma_me=1 / trellis=1 / 8x8dct=1 / cqm=0 / deadzone=21,11 / fast_pskip=1 / chroma_qp_offset=-2 / threads=3 / lookahead_threads=1 / sliced_threads=0 / nr=0 / decimate=1 / interlaced=0 / bluray_compat=0 / constrained_intra=0 / bframes=3 / b_pyramid=0 / b_adapt=2 / b_bias=0 / direct=3 / weightb=1 / open_gop=0 / weightp=2 / keyint=250 / keyint_min=25 / scenecut=40 / intra_refresh=0 / rc_lookahead=40 / rc=abr / mbtree=1 / bitrate=2900 / ratetol=1.0 / qcomp=0.60 / qpmin=10 / qpmax=51 / qpstep=4 / ip_ratio=1.41 / aq=1:1.00
Language : English
Default : Yes
Forced : No

Audio #1
ID : 2
Format : AC-3
Format/Info : Audio Coding 3
Commercial name : Dolby Digital
Codec ID : A_AC3
Duration : 1 h 40 min
Bit rate mode : Constant
Bit rate : 448 kb/s
Channel(s) : 6 channels
Channel layout : L R C LFE Ls Rs
Sampling rate : 48.0 kHz
Frame rate : 31.250 FPS (1536 SPF)
Bit depth : 16 bits
Compression mode : Lossy
Stream size : 321 MiB (13%)
Language : English
Service kind : Complete Main
Default : Yes
Forced : No

Audio #2
ID : 3
Format : AC-3
Format/Info : Audio Coding 3
Commercial name : Dolby Digital
Codec ID : A_AC3
Duration : 1 h 40 min
Bit rate mode : Constant
Bit rate : 192 kb/s
Channel(s) : 2 channels
Channel layout : L R
Sampling rate : 48.0 kHz
Frame rate : 31.250 FPS (1536 SPF)
Bit depth : 16 bits
Compression mode : Lossy
Stream size : 138 MiB (5%)
Title : Commentary
Language : English
Service kind : Complete Main
Default : No
Forced : No

Text
ID : 4
Format : PGS
Muxing mode : zlib
Codec ID : S_HDMV/PGS
Codec ID/Info : Picture based subtitle format used on BDs/HD-DVDs
Language : English
Default : Yes
Forced : No

Menu
00:00:00.000 : en:Chapter 01
00:05:28.745 : en:Chapter 02
00:11:05.206 : en:Chapter 03
00:14:56.520 : en:Chapter 04
00:20:40.155 : en:Chapter 05
00:22:50.535 : en:Chapter 06
00:30:25.240 : en:Chapter 07
00:34:04.959 : en:Chapter 08
00:40:20.876 : en:Chapter 09
00:49:59.496 : en:Chapter 10
00:54:01.571 : en:Chapter 11
00:57:02.669 : en:Chapter 12
01:06:39.745 : en:Chapter 13
01:09:12.022 : en:Chapter 14
01:17:07.331 : en:Chapter 15
01:34:05.431 : en:Chapter 16
01:37:38.269 : en:Chapter 17




Extras:
- Audio commentary from 1998 featuring Soderbergh in conversation with filmmaker Neil LaBute

Screenshots 1080p (click to enlarge to original size):

Sex, Lies, and Videotape (1989) [Criterion Collection]



Screenshots 720p (click to enlarge to original size):

Sex, Lies, and Videotape (1989) [Criterion Collection]

Sex, Lies, and Videotape (1989) [Criterion Collection]

Sex, Lies, and Videotape (1989) [Criterion Collection]


Sex, Lies, and Videotape (1989) [Criterion Collection]




–––––––––––––––––––––––––––––––––––––––-