Shadow Dancer (2012)

Posted By: NaVi7
Shadow Dancer (2012)

Shadow Dancer (2012)
DVDRip | AVI / XVID, 2885 Kbps | 720x400 | 1h 37mn | 2.28 GB
English: AC3, 448 Kbps (6 ch)
Genre: Thriller

Set in 1990s Belfast, an active member of the IRA becomes an informant for MI5 in order to protect her son's welfare.

imdb - 4 wins & 2 nominations.

General
Complete name : Shadow Dancer 2012 DVDRip Xvid AC3 Legend-Rg.avi
Format : AVI
Format/Info : Audio Video Interleave
File size : 2.28 GiB
Duration : 1h 37mn
Overall bit rate : 3 343 Kbps
Writing library : Boilsoft AVI tool build 1/release

Video
ID : 0
Format : MPEG-4 Visual
Format profile : Advanced Simple@L5
Format settings, BVOP : 2
Format settings, QPel : No
Format settings, GMC : No warppoints
Format settings, Matrix : Default (H.263)
Codec ID : XVID
Codec ID/Hint : XviD
Duration : 1h 37mn
Bit rate : 2 885 Kbps
Width : 720 pixels
Height : 400 pixels
Display aspect ratio : 16:9
Frame rate : 25.000 fps
Color space : YUV
Chroma subsampling : 4:2:0
Bit depth : 8 bits
Scan type : Progressive
Compression mode : Lossy
Bits/(Pixel*Frame) : 0.401
Stream size : 1.97 GiB (86%)
Writing library : XviD 1.2.1 (UTC 2008-12-04)

Audio
ID : 1
Format : AC-3
Format/Info : Audio Coding 3
Mode extension : CM (complete main)
Format settings, Endianness : Big
Codec ID : 2000
Duration : 1h 37mn
Bit rate mode : Constant
Bit rate : 448 Kbps
Channel(s) : 6 channels
Channel positions : Front: L C R, Side: L R, LFE
Sampling rate : 48.0 KHz
Bit depth : 16 bits
Compression mode : Lossy
Stream size : 313 MiB (13%)
Alignment : Split accross interleaves
Interleave, duration : 40 ms (1.00 video frame)
Interleave, preload duration : 500 ms


screenshots:

Shadow Dancer (2012)

Shadow Dancer (2012)

Shadow Dancer (2012)


Welcome to My Blog!

Subscribe to My Newsletter!

No more mirrors!

If you want to download it, but found out that links are dead, just leave a comment or PM me!
Download Links:
http://rapidshare.com/files/750405391/195.rar
Links to RapidGator and Uploaded are inside the html file. Download the file and open it in your browser.