Shadow Dancer (2012)

Posted By: NaVi7
Shadow Dancer (2012)

Shadow Dancer (2012)
BDRip 720p | MKV / AVC, 5366 Kbps | 1280x544 | 1h 41mn | 4.36 GB
English: DTS, 768 Kbps (6 ch)
Genre: Thriller

Set in 1990s Belfast, an active member of the IRA becomes an informant for MI5 in order to protect her son's welfare.

imdb - 4 wins & 2 nominations.

General
Unique ID : 228733942162670781631466656940892434832 (0xAC148E0AB51AD226B00FA5CD5D793190)
Complete name : 7s-sd-2012-720p.mkv
Format : Matroska
Format version : Version 2
File size : 4.36 GiB
Duration : 1h 41mn
Overall bit rate : 6 131 Kbps
Encoded date : UTC 2013-01-15 15:32:58
Writing application : mkvmerge v5.8.0 ('No Sleep / Pillow') built on Sep 2 2012 15:37:04
Writing library : libebml v1.2.3 + libmatroska v1.3.0

Video
ID : 1
Format : AVC
Format/Info : Advanced Video Codec
Format profile : High@L4.1
Format settings, CABAC : Yes
Format settings, ReFrames : 5 frames
Codec ID : V_MPEG4/ISO/AVC
Duration : 1h 41mn
Bit rate : 5 366 Kbps
Width : 1 280 pixels
Height : 544 pixels
Display aspect ratio : 2.35:1
Frame rate mode : Constant
Frame rate : 23.976 fps
Color space : YUV
Chroma subsampling : 4:2:0
Bit depth : 8 bits
Scan type : Progressive
Bits/(Pixel*Frame) : 0.321
Stream size : 3.73 GiB (85%)
Writing library : x264 core 129 r2230 1cffe9f
Encoding settings : cabac=1 / ref=5 / deblock=1:0:0 / analyse=0x3:0x133 / me=umh / subme=7 / psy=1 / psy_rd=1.00:0.00 / mixed_ref=1 / me_range=16 / chroma_me=1 / trellis=1 / 8x8dct=1 / cqm=0 / deadzone=21,11 / fast_pskip=0 / chroma_qp_offset=-2 / threads=12 / lookahead_threads=2 / sliced_threads=0 / nr=0 / decimate=1 / interlaced=0 / bluray_compat=0 / constrained_intra=0 / bframes=3 / b_pyramid=2 / b_adapt=2 / b_bias=0 / direct=3 / weightb=1 / open_gop=0 / weightp=2 / keyint=250 / keyint_min=23 / scenecut=40 / intra_refresh=0 / rc_lookahead=50 / rc=2pass / mbtree=1 / bitrate=5366 / ratetol=1.0 / qcomp=0.60 / qpmin=0 / qpmax=69 / qpstep=4 / cplxblur=20.0 / qblur=0.5 / ip_ratio=1.40 / aq=1:1.00
Language : English
Default : Yes
Forced : No

Audio
ID : 2
Format : DTS
Format/Info : Digital Theater Systems
Mode : 16
Format settings, Endianness : Big
Codec ID : A_DTS
Duration : 1h 41mn
Bit rate mode : Constant
Bit rate : 768 Kbps
Channel(s) : 6 channels
Channel positions : Front: L C R, Side: L R, LFE
Sampling rate : 48.0 KHz
Bit depth : 24 bits
Compression mode : Lossy
Stream size : 560 MiB (13%)
Language : English
Default : Yes
Forced : No


screenshots:

Shadow Dancer (2012)

Shadow Dancer (2012)

Shadow Dancer (2012)


Welcome to My Blog!

Subscribe to My Newsletter!

No more mirrors!

If you want to download it, but found out that links are dead, just leave a comment or PM me!
Download Links:
http://rapidshare.com/files/1461679870/231.html
Links to RapidGator and Uploaded are inside the html file. Download the file and open it in your browser.