Tags
Language
Tags
April 2024
Su Mo Tu We Th Fr Sa
31 1 2 3 4 5 6
7 8 9 10 11 12 13
14 15 16 17 18 19 20
21 22 23 24 25 26 27
28 29 30 1 2 3 4

Sherlock Holmes (1922)

Posted By: RSU75
1080p (FullHD) / BluRay IMDb
Sherlock Holmes (1922)

Sherlock Holmes (1922)
Blu-Ray | BDMV | AVC, 1920x1080, ~30.0 Mbps | 1hr 25mn | 21,1 GB
English (Score): LPCM Audio, 2 ch, 2304 kbps
Subtitles (intertitles): English
Genre: Drama, Mystery, Black & White, Silent



Director: Albert Parker
Writers: Earle Browne, Arthur Conan Doyle (story)
Stars: John Barrymore, Roland Young, Carol Dempster

One of Barrymore's most prestigious early roles, this rarely seen film also presents screen debuts of William Powell and Roland Young. When a young prince is accused of a crime that could embroil him in international scandal, debonair super-sleuth Sherlock Holmes comes to his aid, and quickly discovers that behind the incident lurks a criminal mastermind eager to reduce Western civilization to anarchy.

Bonus: Trailers


All thanks to the original uploader



Disc Title: SherlockHolmes.JohnBarrymore.11.BR
Disc Size: 22 705 959 531 bytes
Protection: AACS
BD-Java: No
BDInfo: 0.5.8

PLAYLIST REPORT:

Name: 00001.MPLS
Length: 1:25:52.714 (h:m:s.ms)
Size: 21 765 777 408 bytes
Total Bitrate: 33,79 Mbps

VIDEO:

Codec Bitrate Description
––- –––- –––––-
MPEG-4 AVC Video 29956 kbps 1080i / 29,970 fps / 16:9 / High Profile 4.1

AUDIO:

Codec Language Bitrate Description
––- –––– –––- –––––-
LPCM Audio English 2304 kbps 2.0 / 48 kHz / 2304 kbps / 24-bit

FILES:

Name Time In Length Size Total Bitrate
–– –––- ––– –– ––––––-
00001.M2TS 0:00:00.000 0:00:10.009 3 710 976 2 956
00002.M2TS 0:00:10.009 1:25:32.026 21 755 990 016 33 914
00003.M2TS 1:25:42.036 0:00:10.677 6 076 416 4 539

–––––––––––––––––––––––––––––––––––––––––––––––––––––––-




Screenshots (click to enlarge to original size):

Sherlock Holmes (1922)

Sherlock Holmes (1922)

Sherlock Holmes (1922)

Sherlock Holmes (1922)

Sherlock Holmes (1922)




–––––––––––––––––––––––––––––––––––––––-
OR OR
–––––––––––––––––––––––––––––––––––––––-

–––––––––––––––––––––––––––––––––––––––-