Siberian Deerskin Boots (2016)

Posted By: notbanned
Siberian Deerskin Boots (2016)

Siberian Deerskin Boots (2012)
HDTV | 1280x720 | .MP4/AVC @ 4044 Kbps | 22mn 37s | 700 MiB
Audio: English MP2 192 kbps, 2 channels | Subs: None
Genre: Documentary

The Siberian version of Russian valenki (felted wool boots), came from the Nenets people and their. That is what the Nenets, one of the peoples that have lived in Siberia for hundreds and hundreds of years, call reindeer skin boots. Russian immigrants borrowed the idea, developing their own boots from sheep’s wool. Long ago, craftsmen that specialise in making “pimy,” lived in every Siberian village. Nowadays there are very few such men. A pimokat’s job is not an easy one, but the woolen boots that they make keep them warm. In these parts people believe that there is no warmer shoe - a statement that should not be taken lightly considering the temperature here often falls below negative 40 degrees Celsius in the winter. For this reason valenki manufacturers in the Golyshmanovsky District of Tyumen Oblast have their work cut out for them even in the June heat as they prepare for the cruel winter frosts.


General
Unique ID : 193584534967312383828341255788587228675 (0x91A30677DB8E76818DE7529C71199E03)
Complete name : Siberian.Deerskin.Boots.2012.mkv
Format : Matroska
Format version : Version 4 / Version 2
File size : 700 MiB
Duration : 22mn 37s
Overall bit rate : 4 322 Kbps

Video
ID : 1
Format : AVC
Format/Info : Advanced Video Codec
Format profile : High@L4.1
Format settings, CABAC : Yes
Format settings, ReFrames : 5 frames
Codec ID : V_MPEG4/ISO/AVC
Duration : 22mn 37s
Bit rate : 4 044 Kbps
Width : 1 280 pixels
Height : 720 pixels
Display aspect ratio : 16:9
Frame rate mode : Constant
Frame rate : 25.000 fps
Color space : YUV
Chroma subsampling : 4:2:0
Bit depth : 8 bits
Scan type : Progressive
Bits/(Pixel*Frame) : 0.176
Stream size : 655 MiB (94%)
Writing library : x264 core 148 r2665 a01e339
Encoding settings : cabac=1 / ref=5 / deblock=1:-2:-2 / analyse=0x3:0x113 / me=umh / subme=8 / psy=1 / psy_rd=1.00:0.00 / mixed_ref=1 / me_range=16 / chroma_me=1 / trellis=1 / 8x8dct=1 / cqm=0 / deadzone=21,11 / fast_pskip=1 / chroma_qp_offset=-2 / threads=12 / lookahead_threads=2 / sliced_threads=0 / nr=0 / decimate=1 / interlaced=0 / bluray_compat=0 / constrained_intra=0 / bframes=3 / b_pyramid=2 / b_adapt=2 / b_bias=0 / direct=3 / weightb=1 / open_gop=0 / weightp=2 / keyint=250 / keyint_min=25 / scenecut=40 / intra_refresh=0 / rc_lookahead=50 / rc=crf / mbtree=1 / crf=20.0 / qcomp=0.60 / qpmin=0 / qpmax=69 / qpstep=4 / ip_ratio=1.40 / aq=1:1.00
Language : English
Default : Yes
Forced : No
DURATION : 00:22:37.800000000
NUMBER_OF_FRAMES : 33945
NUMBER_OF_BYTES : 700608320
_STATISTICS_WRITING_APP : mkvmerge v8.8.0 ('Wind at my back') 64bit
_STATISTICS_WRITING_DATE_UTC : 2016-03-08 18:53:40
_STATISTICS_TAGS : BPS DURATION NUMBER_OF_FRAMES NUMBER_OF_BYTES

Audio
ID : 2
Format : MPEG Audio
Format version : Version 1
Format profile : Layer 2
Codec ID : A_MPEG/L2
Codec ID/Hint : MP2
Duration : 22mn 37s
Bit rate mode : Constant
Bit rate : 192 Kbps
Channel(s) : 2 channels
Sampling rate : 48.0 KHz
Compression mode : Lossy
Stream size : 31.1 MiB (4%)
Default : Yes
Forced : No


Screenshots:

Siberian Deerskin Boots (2016)

Siberian Deerskin Boots (2016)

Siberian Deerskin Boots (2016)

Siberian Deerskin Boots (2016)