BBC - Silent Britain (2006)

Posted By: notbanned
SD / DVDRip
BBC - Silent Britain (2006)

BBC - Silent Britain (2006)
PDTV | 716x572 | .MKV/AVC @ 1624 Kbps | 1 h 28 min | 1.14 GiB
Audio: English AC3 192 kbps, 2 channels | Subs: English
Genre: Documentary

A documentary about the early years of silent films made in Britain. Showing that it wasn't just a few, easily dismissed comedies, but many high quality films including some very popular comedies and some fine dramas. Matthew Sweet shows through examples how the art and even the language of film was developed by some of these pioneers working in Britain.

General
Unique ID : 175804453785995580999624430745394436522 (0x8442B4C8E35A4520AD7D790A62CD59AA)
Complete name : Silent.Britain.PDTV.mkv
Format : Matroska
Format version : Version 4 / Version 2
File size : 1.14 GiB
Duration : 1 h 28 min
Overall bit rate : 1 853 kb/s

Video
ID : 1
Format : AVC
Format/Info : Advanced Video Codec
Format profile : High@L3.1
Format settings, CABAC : Yes
Format settings, ReFrames : 9 frames
Codec ID : V_MPEG4/ISO/AVC
Duration : 1 h 28 min
Bit rate : 1 624 kb/s
Width : 716 pixels
Height : 572 pixels
Display aspect ratio : 4:3
Original display aspect ratio : 4:3
Frame rate mode : Constant
Frame rate : 25.000 FPS
Color space : YUV
Chroma subsampling : 4:2:0
Bit depth : 8 bits
Scan type : Progressive
Bits/(Pixel*Frame) : 0.159
Stream size : 1.00 GiB (88%)
Encoding settings : cabac=1 / ref=9 / deblock=1:-3:-3 / analyse=0x3:0x133 / me=umh / subme=9 / psy=1 / psy_rd=1.00:0.00 / mixed_ref=1 / me_range=24 / chroma_me=1 / trellis=2 / 8x8dct=1 / cqm=0 / deadzone=21,11 / fast_pskip=0 / chroma_qp_offset=-2 / threads=12 / lookahead_threads=1 / sliced_threads=0 / nr=0 / decimate=1 / interlaced=0 / bluray_compat=0 / constrained_intra=0 / bframes=6 / b_pyramid=2 / b_adapt=2 / b_bias=0 / direct=3 / weightb=1 / open_gop=0 / weightp=2 / keyint=250 / keyint_min=25 / scenecut=40 / intra_refresh=0 / rc_lookahead=60 / rc=crf / mbtree=1 / crf=22.0 / qcomp=0.60 / qpmin=0 / qpmax=69 / qpstep=4 / ip_ratio=1.40 / aq=1:1.00
Default : Yes
Forced : No
Color range : Limited
Color primaries : BT.601 PAL
Transfer characteristics : BT.709
Matrix coefficients : BT.601

Audio
ID : 2
Format : AC-3
Format/Info : Audio Coding 3
Format settings, Endianness : Big
Codec ID : A_AC3
Duration : 1 h 28 min
Bit rate mode : Constant
Bit rate : 192 kb/s
Channel(s) : 2 channels
Channel positions : Front: L R
Sampling rate : 48.0 kHz
Frame rate : 31.250 FPS (1536 spf)
Bit depth : 16 bits
Compression mode : Lossy
Stream size : 121 MiB (10%)
Title : Stereo
Language : English
Service kind : Complete Main
Default : Yes
Forced : No

Text
ID : 3
Format : UTF-8
Codec ID : S_TEXT/UTF8
Codec ID/Info : UTF-8 Plain Text
Default : Yes
Forced : No

Menu
00:00:00.000 : :Chapter 1
00:02:02.000 : :Chapter 2
00:06:42.760 : :Chapter 3
00:12:34.400 : :Chapter 4
00:16:14.560 : :Chapter 5
00:22:38.120 : :Chapter 6
00:26:36.480 : :Chapter 7
00:33:58.360 : :Chapter 8
00:38:15.280 : :Chapter 9
00:49:38.640 : :Chapter 10
00:56:38.600 : :Chapter 11
01:03:01.200 : :Chapter 12
01:09:14.720 : :Chapter 13
01:14:49.160 : :Chapter 14
01:19:38.560 : :Chapter 15
01:24:44.360 : :Chapter 16


Screenshots:

BBC - Silent Britain (2006)

BBC - Silent Britain (2006)

BBC - Silent Britain (2006)

BBC - Silent Britain (2006)