Tags
Language
Tags

Sin City Justice S01E06

Posted By: Tavaz
1080p (FullHD) / WEBRip IMDb
Sin City Justice S01E06

Sin City Justice S01E06
WEBRip | MKV | 1920x1080 | English | H264 @ 6199 kbps | AAC @ 128 kbps | 44 min 12 s | 1.95 GiB
Genre: Crime

Sin City Justice offers exclusive and unprecedented access to the Las Vegas District Attorney's Office…



sin.city.justice.s01e06.1080p.web.h264-klingon.sample.mkv (45.7 MB)
sin.city.justice.s01e06.1080p.web.h264-klingon.mkv (2.0 GB)



General
Unique ID : 208481655961235402796518503312845614667 (0x9CD81B3D7F344632AF0E97419636AE4B)
Complete name : ./sin.city.justice.s01e06.1080p.web.h264-klingon.mkv
Format : Matroska
Format version : Version 4 / Version 2
File size : 1.95 GiB
Duration : 44 min 12 s
Overall bit rate : 6 330 kb/s
Encoded date : UTC 2017-11-08 09:15:20
Writing application : mkvmerge v17.0.0 ('Be Ur Friend') 64-bit
Writing library : libebml v1.3.5 + libmatroska v1.4.8

Video
ID : 1
Format : AVC
Format/Info : Advanced Video Codec
Format profile : Main@L4.1
Format settings : CABAC / 3 Ref Frames
Format settings, CABAC : Yes
Format settings, RefFrames : 3 frames
Codec ID : V_MPEG4/ISO/AVC
Duration : 44 min 12 s
Bit rate : 6 200 kb/s
Width : 1 920 pixels
Height : 1 080 pixels
Display aspect ratio : 16:9
Frame rate mode : Constant
Frame rate : 25.000 FPS
Color space : YUV
Chroma subsampling : 4:2:0
Bit depth : 8 bits
Scan type : Progressive
Bits/(Pixel*Frame) : 0.120
Stream size : 1.91 GiB (98%)
Language : English
Default : Yes
Forced : No
Color range : Limited
Color primaries : BT.709
Transfer characteristics : BT.709
Matrix coefficients : BT.709

Audio
ID : 2
Format : AAC
Format/Info : Advanced Audio Codec
Format profile : LC
Codec ID : A_AAC-2
Duration : 44 min 12 s
Bit rate : 128 kb/s
Channel(s) : 2 channels
Channel positions : Front: L R
Sampling rate : 48.0 kHz
Frame rate : 46.875 FPS (1024 SPF)
Compression mode : Lossy
Stream size : 40.5 MiB (2%)
Language : English
Default : Yes
Forced : No





Sin City Justice S01E06


Sin City Justice S01E06


Sin City Justice S01E06


Sin City Justice S01E06


Sin City Justice S01E06

All episodes