Tags
Language
Tags

Sinfonía erótica (1980)

Posted By: RSU75
1080p (FullHD) / BDRip IMDb
Sinfonía erótica (1980)

Sinfonía erótica (1980)
BDRip | MKV | AVC 1792x1080, ~ 4.0 Mbps | 1hr 24mn | 3.27 MB
Spanish (Español): DTS, 2 ch, 1510 kbps
BDRip | MKV | AVC 1192x720, ~ 2.9 Mbps | 1hr 24mn | 1.87 MB
Spanish (Español): AC3, 2 ch, 256 kbps
Subtitles: English
Genre: Drama, Romance



Director: Jesús Franco
Writers: Jesús Franco, Marquis de Sade (story)
Stars: Lina Romay, Susan Hemingway, Armando Borges

A nobleman and his two lovers - a teenage boy and a runaway nun - plan to kill his mentally fragile wife.

Extras:
- None




General
Unique ID : 197836321246032213352516596482812578707 (0x94D5E3B76B7A7D539265FD594EE28B93)
Complete name : F:\SinfoníaErótica.80.1p\SinfoníaErótica.80.1p.mkv
Format : Matroska
Format version : Version 4 / Version 2
File size : 3.27 GiB
Duration : 1 h 24 min
Overall bit rate : 5 520 kb/s
Movie name : Release RSU75
Encoded date : UTC 2018-12-09 18:13:05
Writing application : mkvmerge v6.6.0 ('The Edge Of The In Between') built on Dec 1 2013 17:55:00
Writing library : libebml v1.3.0 + libmatroska v1.4.1

Video
ID : 1
Format : AVC
Format/Info : Advanced Video Codec
Format profile : High@L4.1
Format settings : CABAC / 4 Ref Frames
Format settings, CABAC : Yes
Format settings, ReFrames : 4 frames
Codec ID : V_MPEG4/ISO/AVC
Duration : 1 h 24 min
Bit rate : 4 000 kb/s
Width : 1 792 pixels
Height : 1 080 pixels
Display aspect ratio : 5:3
Frame rate mode : Constant
Frame rate : 23.976 (23976/1000) FPS
Color space : YUV
Chroma subsampling : 4:2:0
Bit depth : 8 bits
Scan type : Progressive
Bits/(Pixel*Frame) : 0.086
Stream size : 2.31 GiB (71%)
Writing library : x264 core 148 r2643 5c65704
Encoding settings : cabac=1 / ref=4 / deblock=1:0:0 / analyse=0x3:0x113 / me=umh / subme=8 / psy=1 / psy_rd=1.00:0.00 / mixed_ref=1 / me_range=24 / chroma_me=1 / trellis=1 / 8x8dct=1 / cqm=0 / deadzone=21,11 / fast_pskip=1 / chroma_qp_offset=-2 / threads=3 / lookahead_threads=1 / sliced_threads=0 / nr=0 / decimate=1 / interlaced=0 / bluray_compat=0 / constrained_intra=0 / bframes=3 / b_pyramid=0 / b_adapt=2 / b_bias=0 / direct=3 / weightb=1 / open_gop=0 / weightp=2 / keyint=250 / keyint_min=25 / scenecut=40 / intra_refresh=0 / rc_lookahead=40 / rc=abr / mbtree=1 / bitrate=4000 / ratetol=1.0 / qcomp=0.60 / qpmin=10 / qpmax=51 / qpstep=4 / ip_ratio=1.41 / aq=1:1.00
Language : English
Default : Yes
Forced : No

Audio
ID : 2
Format : DTS
Format/Info : Digital Theater Systems
Codec ID : A_DTS
Duration : 1 h 24 min
Bit rate mode : Constant
Bit rate : 1 509 kb/s
Channel(s) : 2 channels
Channel layout : L R
Sampling rate : 48.0 kHz
Frame rate : 93.750 FPS (512 SPF)
Bit depth : 24 bits
Compression mode : Lossy
Stream size : 914 MiB (27%)
Language : Spanish
Default : Yes
Forced : No

Text
ID : 3
Format : PGS
Muxing mode : zlib
Codec ID : S_HDMV/PGS
Codec ID/Info : Picture based subtitle format used on BDs/HD-DVDs
Language : English
Default : Yes
Forced : No

Menu
00:00:00.000 : en:Chapter 01
00:08:42.897 : en:Chapter 02
00:21:11.228 : en:Chapter 03
00:34:14.135 : en:Chapter 04
00:44:36.215 : en:Chapter 05
00:54:01.988 : en:Chapter 06
01:04:09.220 : en:Chapter 07
01:15:32.110 : en:Chapter 08
01:24:39.240 : en:Chapter 09





General
Unique ID : 254114167410668857386723063285596928739 (0xBF2C9BC22107B01CABF8BA424689BAE3)
Complete name : F:\SinfoníaErótica.80.7p\SinfoníaErótica.80.7p.mkv
Format : Matroska
Format version : Version 4 / Version 2
File size : 1.87 GiB
Duration : 1 h 24 min
Overall bit rate : 3 168 kb/s
Movie name : Release RSU75
Encoded date : UTC 2018-12-15 04:19:27
Writing application : mkvmerge v6.6.0 ('The Edge Of The In Between') built on Dec 1 2013 17:55:00
Writing library : libebml v1.3.0 + libmatroska v1.4.1

Video
ID : 1
Format : AVC
Format/Info : Advanced Video Codec
Format profile : High@L4.1
Format settings : CABAC / 4 Ref Frames
Format settings, CABAC : Yes
Format settings, ReFrames : 4 frames
Codec ID : V_MPEG4/ISO/AVC
Duration : 1 h 24 min
Bit rate : 2 900 kb/s
Width : 1 192 pixels
Height : 720 pixels
Display aspect ratio : 5:3
Frame rate mode : Constant
Frame rate : 23.976 (23976/1000) FPS
Color space : YUV
Chroma subsampling : 4:2:0
Bit depth : 8 bits
Scan type : Progressive
Bits/(Pixel*Frame) : 0.141
Stream size : 1.69 GiB (90%)
Writing library : x264 core 148 r2643 5c65704
Encoding settings : cabac=1 / ref=4 / deblock=1:0:0 / analyse=0x3:0x113 / me=umh / subme=8 / psy=1 / psy_rd=1.00:0.00 / mixed_ref=1 / me_range=24 / chroma_me=1 / trellis=1 / 8x8dct=1 / cqm=0 / deadzone=21,11 / fast_pskip=1 / chroma_qp_offset=-2 / threads=3 / lookahead_threads=1 / sliced_threads=0 / nr=0 / decimate=1 / interlaced=0 / bluray_compat=0 / constrained_intra=0 / bframes=3 / b_pyramid=0 / b_adapt=2 / b_bias=0 / direct=3 / weightb=1 / open_gop=0 / weightp=2 / keyint=250 / keyint_min=25 / scenecut=40 / intra_refresh=0 / rc_lookahead=40 / rc=abr / mbtree=1 / bitrate=2900 / ratetol=1.0 / qcomp=0.60 / qpmin=10 / qpmax=51 / qpstep=4 / ip_ratio=1.41 / aq=1:1.00
Language : English
Default : Yes
Forced : No

Audio
ID : 2
Format : AC-3
Format/Info : Audio Coding 3
Commercial name : Dolby Digital
Codec ID : A_AC3
Duration : 1 h 24 min
Bit rate mode : Constant
Bit rate : 256 kb/s
Channel(s) : 2 channels
Channel layout : L R
Sampling rate : 44.1 kHz
Frame rate : 28.711 FPS (1536 SPF)
Bit depth : 16 bits
Compression mode : Lossy
Stream size : 155 MiB (8%)
Language : Spanish
Service kind : Complete Main
Default : Yes
Forced : No

Text
ID : 3
Format : PGS
Muxing mode : zlib
Codec ID : S_HDMV/PGS
Codec ID/Info : Picture based subtitle format used on BDs/HD-DVDs
Language : English
Default : Yes
Forced : No

Menu
00:00:00.000 : en:Chapter 01
00:08:42.897 : en:Chapter 02
00:21:11.228 : en:Chapter 03
00:34:14.135 : en:Chapter 04
00:44:36.215 : en:Chapter 05
00:54:01.988 : en:Chapter 06
01:04:09.220 : en:Chapter 07
01:15:32.110 : en:Chapter 08
01:24:39.240 : en:Chapter 09





Screenshots 1080p (click to enlarge to original size):

Sinfonía erótica (1980)

Sinfonía erótica (1980)

Sinfonía erótica (1980)


Sinfonía erótica (1980)



Screenshots 720p (click to enlarge to original size):

Sinfonía erótica (1980)




–––––––––––––––––––––––––––––––––––––––-