Tags
Language
Tags

Singham (2011)

Posted By: Tavaz
1080p (FullHD) / BDRip IMDb
Singham (2011)

Singham (2011)
BDRip | MOV | 1920x816 | Hindi | H264 @ 3382 kbps | AC-3 @ 640 kbps | 2 h 22 min | 4.00 GiB
Subtitles: English
Genre: Drama, Action, Crime

A Bollywood classic directed by Rodit Shetty. Singham tells the story of sub-inspector Durai Singan who uncovers a scam run by extortionist Vaaganam in which kidnaps children from wealthy families and holds them for ransom. With Singam on his tracks Vaaganam starts to target people dearest to him including his fiancé and close friend Inspecter Ravi. Singan has to stop Vaaganam before he puts any more lives in danger.

2de61e31b6bf4cf58c29ac56fd391a34.mp4 (4.0 GB)



General
Complete name : ./2de61e31b6bf4cf58c29ac56fd391a34.mp4
Format : MPEG-4
Format profile : Base Media / Version 2
Codec ID : mp42 (isom/iso2/avc1/mp41)
File size : 4.00 GiB
Duration : 2 h 22 min
Overall bit rate mode : Variable
Overall bit rate : 4 028 kb/s
Movie name : Singham
Director : Rohit Shetty
Actor : Ajay Devgn / Kajal Agarwal / Prakash Raj / Ashok Saraf / Sachin Khedekar
Screenplay by : Yunus Sajawal / Hari / Yunus Sajawal / Farhad Samji / Sajid Samji
Producer : Rohit Chaudhury / Dhiraj Shah
Genre : Drama
ContentType : Short Film
Recorded date : 2011-07-22
Encoded date : UTC 2020-01-04 18:42:26
Tagged date : UTC 2020-01-04 18:42:26
Writing application : LiMEY's Special Sauce v2.0
Cover : Yes
ContentRating : None
LongDescription : A Bollywood classic directed by Rodit Shetty. Singham tells the story of sub-inspector Durai Singan who uncovers a scam run by extortionist Vaaganam in which kidnaps children from wealthy families and holds them for ransom. With Singam on his tracks Vaaganam starts to target people dearest to him including his fiancé and close friend Inspecter Ravi. Singan has to stop Vaaganam before he puts any more lives in danger.

Video
ID : 1
Format : AVC
Format/Info : Advanced Video Codec
Format profile : High@L4.1
Format settings : CABAC / 4 Ref Frames
Format settings, CABAC : Yes
Format settings, RefFrames : 4 frames
Codec ID : avc1
Codec ID/Info : Advanced Video Coding
Duration : 2 h 22 min
Bit rate : 3 382 kb/s
Width : 1 920 pixels
Height : 816 pixels
Display aspect ratio : 2.35:1
Frame rate mode : Variable
Frame rate : 23.976 (24000/1001) FPS
Minimum frame rate : 23.974 FPS
Maximum frame rate : 23.981 FPS
Color space : YUV
Chroma subsampling : 4:2:0
Bit depth : 8 bits
Scan type : Progressive
Bits/(Pixel*Frame) : 0.090
Stream size : 3.36 GiB (84%)
Writing library : x264 core 157 r2935 545de2f
Encoding settings : cabac=1 / ref=4 / deblock=1:-3:-3 / analyse=0x3:0x113 / me=esa / subme=10 / psy=1 / psy_rd=1.00:0.20 / mixed_ref=1 / me_range=32 / chroma_me=1 / trellis=2 / 8x8dct=1 / cqm=0 / deadzone=21,11 / fast_pskip=0 / chroma_qp_offset=-3 / threads=12 / lookahead_threads=1 / sliced_threads=0 / nr=0 / decimate=0 / interlaced=0 / bluray_compat=0 / constrained_intra=0 / bframes=5 / b_pyramid=2 / b_adapt=2 / b_bias=0 / direct=3 / weightb=1 / open_gop=0 / weightp=2 / keyint=240 / keyint_min=24 / scenecut=40 / intra_refresh=0 / rc_lookahead=60 / rc=2pass / mbtree=1 / bitrate=3382 / ratetol=1.0 / qcomp=0.60 / qpmin=0 / qpmax=69 / qpstep=4 / cplxblur=20.0 / qblur=0.5 / vbv_maxrate=34500 / vbv_bufsize=30000 / nal_hrd=none / filler=0 / ip_ratio=1.40 / aq=1:0.80
Encoded date : UTC 2020-01-04 18:42:26
Tagged date : UTC 2020-01-04 18:42:26
Color range : Limited
Color primaries : BT.709
Transfer characteristics : BT.709
Matrix coefficients : BT.709
Menus : 4

Audio
ID : 2
Format : AC-3
Format/Info : Audio Coding 3
Format settings, Endianness : Big
Codec ID : ac-3
Duration : 2 h 22 min
Bit rate mode : Constant
Bit rate : 640 kb/s
Channel(s) : 6 channels
Channel positions : Front: L C R, Side: L R, LFE
Sampling rate : 48.0 kHz
Frame rate : 31.250 FPS (1536 SPF)
Bit depth : 16 bits
Compression mode : Lossy
Stream size : 650 MiB (16%)
Title : DTS-HD MA 5.1
Language : Hindi
Service kind : Complete Main
Default : Yes
Alternate group : 1
Encoded date : UTC 2020-01-04 18:42:26
Tagged date : UTC 2020-01-04 18:42:26
Menus : 4

Text
ID : 3
Format : Timed Text
Muxing mode : sbtl
Codec ID : tx3g
Duration : 2 h 19 min
Bit rate mode : Variable
Bit rate : 117 b/s
Stream size : 120 KiB (0%)
Title : English
Language : English
Default : Yes
Forced : No
Alternate group : 3
Encoded date : UTC 2020-01-04 18:42:26
Tagged date : UTC 2020-01-04 18:42:26
Menus : 4

Menu
ID : 4
Codec ID : text
Duration : 2 h 22 min
Language : English
Encoded date : UTC 2020-01-04 18:42:26
Tagged date : UTC 2020-01-04 18:42:26
Menu For : 1,2,3
00:00:00.000 : False Allegations
00:08:31.386 : Singham…
00:12:23.993 : Inspector Bajirao Singham
00:22:34.019 : Kavya & Singham
00:27:37.739 : The Fight
00:40:47.695 : Saathiyaa…
00:46:20.945 : Conditional Bail To Jaikant
00:59:44.998 : Transfer At Colva Police Station
01:07:13.696 : Welcome to Goa, Singham!
01:15:15.970 : A Thought To Quit Colva
01:22:37.369 : FIR Against Shiva Naik
01:29:39.416 : Now It's Your Turn, Jaikant!
01:37:45.985 : Anjali Kidnapped
01:46:03.899 : The Power Of Minister's Chair
01:50:46.098 : Maula Maula…
01:53:36.601 : Victory In Election
02:00:34.018 : Goa Police Annual Festival
02:04:34.217 : Justice To Rakesh Kadam
02:13:23.454 : Climax
02:19:40.414 : End Credits
Bit rate mode : VBR





Singham (2011)


Singham (2011)


Singham (2011)


Singham (2011)


Singham (2011)