Channel 5 - Sinkholes: Series 1 (2017)

Posted By: notbanned
720p (HD) / HDTV
Channel 5 - Sinkholes: Series 1 (2017)

Channel 5 - Sinkholes: Series 1 (2017)
HDTV | 1280x720 | .MP4/AVC @ 2766 Kbps | 3x~45min | 2.78 GiB
Audio: English AAC 159 kbps, 2 channels | Subs: None
Genre: Documentary

Documentary examining the underlying forces behind sinkholes, which can swallow up streets, rip up motorways, destroy forests and even drag unfortunate bystanders to their deaths.
Part 1: Buried Underground
In Ripon, North Yorkshire UK, a woman recalls how a huge hole opened up next to her house more than 60 feet wide and 30 feet deep. In Florida, a sink hole appeared directly below a property, sucking a resident deep underground in the process.

Part 2: Sucked under
Geologist Tom Backhouse investigates sinkholes caused by collapsed mine shafts, including one in Gosforth that opened up in front of a flat and led down to an abandoned coal mine. In Bury St Edmunds, a homeowner reveals how he is stuck in an unsellable house that is surrounded by sinkholes.

Part 3: Sucked to Death
The documentary series examining the underlying forces behind sinkholes concludes with a look at an incident in which 53 houses in St Albans were effectively cut off from the rest of the city. Plus, the case of how a developing sinkhole in Somerset opened under a horse.

General
Complete name : Sinkholes.Series.1.1of3.Buried.Underground.720p.mp4
Format : MPEG-4
Format profile : Base Media
Codec ID : isom (isom/iso2/avc1/mp41)
File size : 945 MiB
Duration : 45 min 6 s
Overall bit rate mode : Variable
Overall bit rate : 2 929 kb/s

Video
ID : 1
Format : AVC
Format/Info : Advanced Video Codec
Format profile : High@L4.1
Format settings, CABAC : No
Format settings, ReFrames : 1 frame
Format settings, GOP : M=1, N=12
Codec ID : avc1
Codec ID/Info : Advanced Video Coding
Duration : 45 min 6 s
Bit rate : 2 766 kb/s
Width : 1 280 pixels
Height : 720 pixels
Display aspect ratio : 16:9
Frame rate mode : Constant
Frame rate : 25.000 FPS
Color space : YUV
Chroma subsampling : 4:2:0
Bit depth : 8 bits
Scan type : Progressive
Bits/(Pixel*Frame) : 0.120
Stream size : 892 MiB (94%)
Language : English
Encoded date : UTC 2017-12-05 05:19:46
Tagged date : UTC 2017-12-05 05:19:46

Audio
ID : 2
Format : AAC
Format/Info : Advanced Audio Codec
Format profile : LC
Codec ID : 40
Duration : 45 min 6 s
Bit rate mode : Variable
Bit rate : 159 kb/s
Channel(s) : 2 channels
Channel positions : Front: L R
Sampling rate : 48.0 kHz
Frame rate : 46.875 FPS (1024 spf)
Compression mode : Lossy
Stream size : 51.3 MiB (5%)
Language : English
Encoded date : UTC 2017-12-05 05:19:46
Tagged date : UTC 2017-12-05 05:19:46


Screenshots:

Channel 5 - Sinkholes: Series 1 (2017)

Channel 5 - Sinkholes: Series 1 (2017)

Channel 5 - Sinkholes: Series 1 (2017)

Channel 5 - Sinkholes: Series 1 (2017)