Tags
Language
Tags

Sky Movies Special Hotel Mumbai (2019)

Posted By: notbanned
1080p (FullHD) / HDTV
Sky Movies Special Hotel Mumbai (2019)

Sky Movies Special Hotel Mumbai (2019)
HDTV | 1920x1080 | .MKV/AVC @ 3552 Kbps | 20 min 4 s | 577 MiB
Audio: English AC3 384 kbps, 2 channels | Subs: None
Genre: Documentary

Sky Cinema takes a special look at the true-life thriller, starring Dev Patel, Armie Hammer and Jason Isaacs.

General
Complete name : Sky.Movies.Special.Hotel.Mumbai.2019.1080p.mkv
Format : Matroska
Format version : Version 4 / Version 2
File size : 577 MiB
Duration : 20 min 4 s
Overall bit rate : 4 016 kb/s

Video
ID : 1
Format : AVC
Format/Info : Advanced Video Codec
Format profile : High@L4
Format settings, CABAC : Yes
Format settings, ReFrames : 4 frames
Format settings, GOP : M=3, N=15
Codec ID : V_MPEG4/ISO/AVC
Duration : 20 min 4 s
Bit rate : 3 552 kb/s
Width : 1 920 pixels
Height : 1 080 pixels
Display aspect ratio : 16:9
Frame rate mode : Constant
Frame rate : 25.000 FPS
Standard : Component
Color space : YUV
Chroma subsampling : 4:2:0
Bit depth : 8 bits
Scan type : Interlaced
Scan type, store method : Separated fields
Scan order : Top Field First
Bits/(Pixel*Frame) : 0.069
Stream size : 510 MiB (88%)
Language : English
Default : Yes
Forced : No
Color range : Limited
Color primaries : BT.709
Transfer characteristics : BT.709
Matrix coefficients : BT.709

Audio
ID : 2
Format : AC-3
Format/Info : Audio Coding 3
Format settings, Endianness : Big
Codec ID : A_AC3
Duration : 20 min 4 s
Bit rate mode : Constant
Bit rate : 384 kb/s
Channel(s) : 2 channels
Channel positions : Front: L R
Sampling rate : 48.0 kHz
Frame rate : 31.250 FPS (1536 spf)
Bit depth : 16 bits
Compression mode : Lossy
Stream size : 55.1 MiB (10%)
Language : English
Service kind : Complete Main
Default : Yes
Forced : No

Menu
00:00:00.000 : en:PART_01
00:10:55.190 : en:PART_02


Screenshots:

Sky Movies Special Hotel Mumbai (2019)

Sky Movies Special Hotel Mumbai (2019)

Sky Movies Special Hotel Mumbai (2019)

Sky Movies Special Hotel Mumbai (2019)