Skyfall (2012)

Posted By: NaVi7
Skyfall (2012)

Skyfall (2012)
BDRip 1080p | MKV / AVC, 8320 Kbps | 1920x800 | 2h 23mn | 9.09 GB
Español: DTS, 768 Kbps (6 ch)
Género: Acción | Aventura | Crimen | Suspenso

La lealtad de James Bond (Daniel Craig), el mejor agente de los servicios británicos, hacia su superiora M (Judi Dench) se verá puesta a prueba cuando el pasado de ella vuelve para atormentarla. Al mismo tiempo, el MI6 sufre un ataque, y 007 tendrá que localizar y destruir el grave peligro que representa el villano Silva (Javier Bardem). Para conseguirlo contará con la ayuda de la agente Eve (Naomie Harris).

imdb - Nominated for 5 Oscars. Another 19 wins & 50 nominations.

General
Unique ID : 229556524115207549332739162159989050673 (0xACB2FA769B493FFC87FFF069635ECD31)
Complete name : Skyfall.1080p.DTS.Spanish.Bluray.2012.mkv
Format : Matroska
Format version : Version 4 / Version 2
File size : 9.09 GiB
Duration : 2h 23mn
Overall bit rate : 9 090 Kbps
Encoded date : UTC 2013-02-10 16:04:51
Writing application : mkvmerge v6.0.0 ('Coming Up For Air') built on Jan 20 2013 09:52:00
Writing library : libebml v1.3.0 + libmatroska v1.4.0

Video
ID : 1
Format : AVC
Format/Info : Advanced Video Codec
Format profile : High@L4.1
Format settings, CABAC : Yes
Format settings, ReFrames : 5 frames
Codec ID : V_MPEG4/ISO/AVC
Duration : 2h 23mn
Bit rate : 8 320 Kbps
Width : 1 920 pixels
Height : 800 pixels
Display aspect ratio : 2.40:1
Frame rate mode : Constant
Frame rate : 23.976 fps
Color space : YUV
Chroma subsampling : 4:2:0
Bit depth : 8 bits
Scan type : Progressive
Bits/(Pixel*Frame) : 0.226
Stream size : 8.14 GiB (90%)
Writing library : x264 core 129 r2245kMod bc13772
Encoding settings : cabac=1 / ref=5 / deblock=1:0:0 / analyse=0x3:0x133 / me=umh / subme=7 / psy=1 / fade_compensate=0.00 / psy_rd=1.00:0.00 / mixed_ref=1 / me_range=16 / chroma_me=1 / trellis=1 / 8x8dct=1 / cqm=0 / deadzone=21,11 / fast_pskip=1 / chroma_qp_offset=-2 / threads=18 / lookahead_threads=3 / sliced_threads=0 / nr=0 / decimate=1 / interlaced=0 / bluray_compat=0 / constrained_intra=0 / bframes=3 / b_pyramid=2 / b_adapt=2 / b_bias=0 / direct=3 / weightb=1 / open_gop=0 / weightp=2 / keyint=250 / keyint_min=23 / scenecut=40 / intra_refresh=0 / rc_lookahead=40 / rc=2pass / mbtree=1 / bitrate=8320 / ratetol=1.0 / qcomp=0.60 / qpmin=0 / qpmax=69 / qpstep=4 / cplxblur=20.0 / qblur=0.5 / ip_ratio=1.40 / aq=1:1.00
Language : Spanish
Default : Yes
Forced : Yes

Audio
ID : 2
Format : DTS
Format/Info : Digital Theater Systems
Mode : 16
Format settings, Endianness : Big
Codec ID : A_DTS
Duration : 2h 23mn
Bit rate mode : Constant
Bit rate : 768 Kbps
Channel(s) : 6 channels
Channel positions : Front: L C R, Side: L R, LFE
Sampling rate : 48.0 KHz
Bit depth : 24 bits
Compression mode : Lossy
Stream size : 786 MiB (8%)
Language : Spanish
Default : Yes
Forced : Yes


capturas de pantalla:

Skyfall (2012)

Skyfall (2012)

Skyfall (2012)


Bienvenido a mi Blog!

Suscribirse a mi boletín de noticias!

No más espejos!

Si quieres descargarlo, pero nos enteramos de que los enlaces están muertos, simplemente dejar un comentario o pm me!
Descargar Enlaces:
Uploaded | Rapidgator
Enlaces a RapidGator y son Uploaded dentro del archivo html. Descargue el archivo y abrirlo en su navegador.