Sleepless - Il giustiziere (2017)

Posted By: JohnSmith
Sleepless - Il giustiziere (2017)

Sleepless - Il giustiziere / Sleepless (2017)
CAMRip | AVI / XviD@2600 kb/s | 880x375 | 1h 29mn | 1.82 GB | Italian: MP3, 320 kb/s (2 ch)
Genre: Action | Crime | Thriller

Vincent Downs, tenente sotto copertura della polizia di Las Vegas, si ritrova accidentalmente coinvolto nella sparizione di una partita di droga che attira contro di lui l'ira di due boss criminali. Uno di questi, Rubino, fa rapire il figlio quattordicenne di Vincent, promettendo di liberarlo solo dopo la restituzione della cocaina. Vincent inizierà così una corsa contro il tempo per salvarlo.




General
Complete name : D:\Sleepless.2017.iTALiAN.MD.TELESYNC.XviD-DDLV.avi
Format : AVI
Format/Info : Audio Video Interleave
File size : 1.82 GiB
Duration : 1 h 29 min
Overall bit rate : 2 931 kb/s

Video
ID : 0
Format : MPEG-4 Visual
Format profile : Simple@L3
Format settings, BVOP : No
Format settings, QPel : No
Format settings, GMC : No warppoints
Format settings, Matrix : Default (H.263)
Codec ID : XVID
Codec ID/Hint : XviD
Duration : 1 h 29 min
Bit rate : 2 596 kb/s
Width : 880 pixels
Height : 372 pixels
Display aspect ratio : 2.35:1
Frame rate : 30.000 FPS
Color space : YUV
Chroma subsampling : 4:2:0
Bit depth : 8 bits
Scan type : Progressive
Compression mode : Lossy
Bits/(Pixel*Frame) : 0.264
Stream size : 1.62 GiB (89%)
Writing library : XviD 63

Audio
ID : 1
Format : MPEG Audio
Format version : Version 1
Format profile : Layer 3
Mode : Joint stereo
Codec ID : 55
Codec ID/Hint : MP3
Duration : 1 h 9 min
Source duration : 3 h 42 min
Bit rate mode : Constant
Bit rate : 320 kb/s
Channel(s) : 2 channels
Sampling rate : 44.1 kHz
Compression mode : Lossy
Stream size : 204 MiB (11%)
Alignment : Aligned on interleaves
Interleave, duration : 26 ms (0.78 video frame)
Writing library : LAME’pЛі°ЌCИЬЖ xЊI




Screenshots

Sleepless - Il giustiziere (2017)

Sleepless - Il giustiziere (2017)

Sleepless - Il giustiziere (2017)