Somewhere Between (2011)

Posted By: vivid23
Somewhere Between (2011)

Somewhere Between (2011)
DVDrip | 624x352 | AVI/XviD @ 964 Kbps | 88mn | Audio: English MP3 128 kbps, 2 channels | Subs: None | 701 MB
Genre: Documentary

SOMEWHERE BETWEEN tells the intimate stories of four teenaged girls. They live in different parts of the US, in different kinds of families and are united by one thing: all four were adopted from China because all four had birth parents who could not keep them, due to personal circumstances colliding with China's "One Child Policy". These strong young women allow us to grasp what it is like to come-of-age in today's America as trans-racial adoptees. At the same time, we see them as typical American teenagers doing what teenagers everywhere do…struggling to make sense of their lives. Through these young women, and their explorations of who they are, we ourselves pause to consider who we are - both as individuals and as a nation of immigrants. Identity, racism, and gender…these far-reaching issues are explored in the documentary. And with great honesty and courage, these four girls open their hearts to experience love, compassion, and self-acceptance.

More info

Video
ID : 0
Format : MPEG-4 Visual
Format profile : Advanced Simple@L5
Format settings, BVOP : Yes
Format settings, QPel : No
Format settings, GMC : No warppoints
Format settings, Matrix : Default (H.263)
Muxing mode : Packed bitstream
Codec ID : XVID
Codec ID/Hint : XviD
Duration : 1h 28mn
Bit rate : 964 Kbps
Width : 624 pixels
Height : 352 pixels
Display aspect ratio : 16:9
Frame rate : 23.976 fps
Color space : YUV
Chroma subsampling : 4:2:0
Bit depth : 8 bits
Scan type : Progressive
Compression mode : Lossy
Bits/(Pixel*Frame) : 0.183
Stream size : 609 MiB (87%)
Writing library : XviD 61

Audio
ID : 1
Format : MPEG Audio
Format version : Version 1
Format profile : Layer 3
Mode : Joint stereo
Mode extension : MS Stereo
Codec ID : 55
Codec ID/Hint : MP3
Duration : 1h 28mn
Bit rate mode : Variable
Bit rate : 128 Kbps
Channel(s) : 2 channels
Sampling rate : 48.0 KHz
Compression mode : Lossy
Stream size : 83.9 MiB (12%)
Alignment : Aligned on interleaves
Interleave, duration : 24 ms (0.58 video frame)
Interleave, preload duration : 147 ms
Writing library : LAME3.90.
Encoding settings : -m j -V 4 -q 2 -lowpass 17.6 –abr 128


Somewhere Between (2011)

Somewhere Between (2011)


Feel free to contact me when links are dead