Tags
Language
Tags
February 2023
Su Mo Tu We Th Fr Sa
29 30 31 1 2 3 4
5 6 7 8 9 10 11
12 13 14 15 16 17 18
19 20 21 22 23 24 25
26 27 28 1 2 3 4

Spider-Man (2002)

Posted By: Tavaz
1080p (FullHD) / BDRip IMDb
Spider-Man (2002)

Spider-Man (2002)
BDRip | MKV | 1920x1036 | English | H265 @ 4998 kbps | AC-3 @ 640 kbps | 2 h 1 min | 5.13 GiB
Subtitles: 中文, Français, Deutsch, Español, Polski, Italiano, Nederlands, Svenska, English, Português, Čeština
Genre: Action, Adventure, Sci-Fi

After being bitten by a genetically-modified spider, a shy teenager gains spider-like abilities that he uses to fight injustice as a masked superhero and face a vengeful enemy.,Based on Marvel Comics' superhero character, this is a story of Peter Parker who is a nerdy high-schooler. He was orphaned as a child, bullied by jocks, and can't confess his crush for his stunning neighborhood girl Mary Jane Watson. To say his life is "miserable" is an understatement. But one day while on an excursion to a laboratory a runaway radioactive spider bites him… and his life changes in a way no one could have imagined. Peter acquires a muscle-bound physique, clear vision, ability to cling to surfaces and crawl over walls, shooting webs from his wrist … but the fun isn't going to last. An eccentric millionaire Norman Osborn administers a performance enhancing drug on himself and his maniacal alter ego Green Goblin emerges. Now Peter Parker has to become Spider-Man and take Green Goblin to the task… or else Goblin will kill him. They come face to face and the war begins in which only one of them will survive at the end.::Soumitra,On a school field trip, Peter Parker (Maguire) is bitten by a genetically modified spider. He wakes up the next morning with incredible powers. After witnessing the death of his uncle (Robertson), Parkers decides to put his new skills to use in order to rid the city of evil, but someone else has other plans. The Green Goblin (Dafoe) sees Spider-Man as a threat and must dispose of him. Even if it means the Goblin has to target Parker's Aunt (Harris) and the girl he secretly pines for (Dunst)::Film_Fan,Constantly picked on at school, insecure, brainy orphan Peter Parker can barely stand up for himself, let alone win the affection of Mary Jane Watson, the beautiful red-head next door he adores. Then, one day, while on a school field trip at a Columbia University laboratory, a genetically enhanced spider bites Peter, and just like that, an extraordinary transformation occurs. Now, with his body undergoing drastic changes, Peter gains distinct arachnid powers and phenomenal newfound super-abilities, only to quickly realise that with great power comes great responsibility. And, before long, the unhinged, unnaturally strong super-villain Green Goblin enters the picture, more than willing to put Peter's moral mettle to the test. However, is Peter's unexpected mutation a blessing or a curse? Will Peter Parker dedicate himself to fighting crime as New York City's masked protector?::Nick Riganas,During a school field trip to Columbia University, Peter Parker, a shy nerdy high school outcast, has been bitten by a genetically enhanced spider. Peter discovers the spider has granted him superhuman abilities of a spider, he puts his powers to good use after witnessing his uncle get killed. Peter becomes the masked vigilante known as Spider-Man and he becomes the city's protector. However, Peter's life gets more complicated when he faces his arch-enemy, the Green Goblin who begins to terrorize the city he has sworn to protect, but his love for Mary Jane will ultimately get in the way of the Goblin's murderous goals.::dawsonpersi

Spider-Man.2002.Remastered.1080p.BluRay.10Bit.X265.DD.5.1-Chivaman.mkv (5.1 GB)



General
Unique ID : 90665442448300152294432069799923897915 (0x443587700850327945C6C51B367B563B)
Complete name : ./Spider-Man.2002.Remastered.1080p.BluRay.10Bit.X265.DD.5.1-Chivaman.mkv
Format : Matroska
Format version : Version 4 / Version 2
File size : 5.13 GiB
Duration : 2 h 1 min
Overall bit rate : 6 059 kb/s
Encoded date : UTC 2022-02-21 16:04:51
Writing application : mkvmerge v65.0.0 ('Too Much') 64-bit
Writing library : libebml v1.4.2 + libmatroska v1.6.4 / Lavf58.76.100

Video
ID : 1
Format : HEVC
Format/Info : High Efficiency Video Coding
Format profile : Main 10@L4@Main
Codec ID : V_MPEGH/ISO/HEVC
Duration : 2 h 1 min
Bit rate : 4 998 kb/s
Width : 1 920 pixels
Height : 1 036 pixels
Display aspect ratio : 1.85:1
Frame rate mode : Constant
Frame rate : 23.976 (24000/1001) FPS
Color space : YUV
Chroma subsampling : 4:2:0 (Type 0)
Bit depth : 10 bits
Bits/(Pixel*Frame) : 0.105
Stream size : 4.23 GiB (82%)
Writing library : x265 3.5+1-f0c1022b6:[Windows][GCC 10.2.0][64 bit] 10bit
Encoding settings : cpuid=1111039 / frame-threads=4 / numa-pools=24 / wpp / no-pmode / no-pme / no-psnr / no-ssim / log-level=2 / input-csp=1 / input-res=1920x1036 / interlace=0 / total-frames=0 / level-idc=0 / high-tier=1 / uhd-bd=0 / ref=4 / no-allow-non-conformance / no-repeat-headers / annexb / no-aud / no-hrd / info / hash=0 / no-temporal-layers / open-gop / min-keyint=24 / keyint=240 / gop-lookahead=0 / bframes=4 / b-adapt=2 / b-pyramid / bframe-bias=0 / rc-lookahead=25 / lookahead-slices=6 / scenecut=40 / hist-scenecut=0 / radl=0 / no-splice / no-intra-refresh / ctu=32 / min-cu-size=8 / no-rect / no-amp / max-tu-size=32 / tu-inter-depth=1 / tu-intra-depth=1 / limit-tu=0 / rdoq-level=1 / dynamic-rd=0.00 / no-ssim-rd / signhide / no-tskip / nr-intra=0 / nr-inter=0 / no-constrained-intra / no-strong-intra-smoothing / max-merge=3 / limit-refs=1 / no-limit-modes / me=1 / subme=2 / merange=48 / temporal-mvp / no-frame-dup / no-hme / weightp / no-weightb / no-analyze-src-pics / deblock=-2:-2 / no-sao / no-sao-non-deblock / rd=3 / selective-sao=0 / early-skip / rskip / rskip-edge-threshold=0.050000 / no-fast-intra / no-tskip-fast / no-cu-lossless / b-intra / no-splitrd-skip / rdpenalty=0 / psy-rd=2.00 / psy-rdoq=0.80 / no-rd-refine / no-lossless / cbqpoffs=0 / crqpoffs=0 / rc=abr / bitrate=5000 / qcomp=0.60 / qpstep=4 / stats-write=0 / stats-read=2 / cplxblur=20.0 / qblur=0.5 / ipratio=1.40 / pbratio=1.30 / aq-mode=3 / aq-strength=0.90 / no-cutree / zone-count=0 / no-strict-cbr / qg-size=16 / no-rc-grain / qpmax=69 / qpmin=0 / no-const-vbv / sar=1 / overscan=0 / videoformat=5 / range=0 / colorprim=1 / transfer=1 / colormatrix=1 / chromaloc=1 / chromaloc-top=0 / chromaloc-bottom=0 / display-window=0 / cll=0,0 / min-luma=0 / max-luma=1023 / log2-max-poc-lsb=8 / vui-timing-info / vui-hrd-info / slices=1 / no-opt-qp-pps / no-opt-ref-list-length-pps / no-multi-pass-opt-rps / scenecut-bias=0.05 / hist-threshold=0.03 / no-opt-cu-delta-qp / no-aq-motion / no-hdr10 / no-hdr10-opt / no-dhdr10-opt / no-idr-recovery-sei / analysis-reuse-level=0 / analysis-save-reuse-level=0 / analysis-load-reuse-level=0 / scale-factor=0 / refine-intra=0 / refine-inter=0 / refine-mv=1 / refine-ctu-distortion=0 / no-limit-sao / ctu-info=0 / no-lowpass-dct / refine-analysis-type=0 / copy-pic=1 / max-ausize-factor=1.0 / no-dynamic-refine / no-single-sei / no-hevc-aq / no-svt / no-field / qp-adaptation-range=1.00 / scenecut-aware-qp=0conformance-window-offsets / right=0 / bottom=0 / decoder-max-rate=0 / no-vbv-live-multi-pass
Default : Yes
Forced : No
Color range : Limited
Color primaries : BT.709
Transfer characteristics : BT.709
Matrix coefficients : BT.709

Audio #1
ID : 2
Format : AC-3
Format/Info : Audio Coding 3
Format settings, Endianness : Big
Codec ID : A_AC3
Duration : 2 h 1 min
Bit rate mode : Constant
Bit rate : 640 kb/s
Channel(s) : 6 channels
Channel positions : Front: L C R, Side: L R, LFE
Sampling rate : 48.0 kHz
Frame rate : 31.250 FPS (1536 SPF)
Bit depth : 16 bits
Compression mode : Lossy
Stream size : 555 MiB (11%)
Title : Dolby Digital 5.1
Language : English
Service kind : Complete Main
Default : Yes
Forced : No

Audio #2
ID : 3
Format : AAC
Format/Info : Advanced Audio Codec
Format profile : LC
Codec ID : A_AAC-2
Duration : 2 h 1 min
Bit rate : 96.0 kb/s
Channel(s) : 2 channels
Channel positions : Front: L R
Sampling rate : 48.0 kHz
Frame rate : 46.875 FPS (1024 SPF)
Compression mode : Lossy
Delay relative to video : -21 ms
Stream size : 83.5 MiB (2%)
Title : Commentary with director Sam Raimi, actor Kirsten Dunst, producer Laura Ziskin and co-producer Grant Curtis
Language : English
Default : No
Forced : No

Audio #3
ID : 4
Format : AAC
Format/Info : Advanced Audio Codec
Format profile : LC
Codec ID : A_AAC-2
Duration : 2 h 1 min
Bit rate : 96.0 kb/s
Channel(s) : 2 channels
Channel positions : Front: L R
Sampling rate : 48.0 kHz
Frame rate : 46.875 FPS (1024 SPF)
Compression mode : Lossy
Delay relative to video : -21 ms
Stream size : 83.5 MiB (2%)
Title : Commentary with visual effects designer John Dykstra, director of animation Anthony LaMolinara and visual effects supervisor Scott Stokdyk
Language : English
Default : No
Forced : No

Audio #4
ID : 5
Format : AAC
Format/Info : Advanced Audio Codec
Format profile : LC
Codec ID : A_AAC-2
Duration : 2 h 1 min
Bit rate : 96.0 kb/s
Channel(s) : 2 channels
Channel positions : Front: L R
Sampling rate : 48.0 kHz
Frame rate : 46.875 FPS (1024 SPF)
Compression mode : Lossy
Delay relative to video : -21 ms
Stream size : 83.5 MiB (2%)
Title : Commentary with actors Tobey Maguire and J.K. Simmons
Language : English
Default : No
Forced : No

Text #1
ID : 6
Format : PGS
Muxing mode : zlib
Codec ID : S_HDMV/PGS
Codec ID/Info : Picture based subtitle format used on BDs/HD-DVDs
Duration : 1 h 52 min
Bit rate : 28.0 kb/s
Count of elements : 2403
Stream size : 22.5 MiB (0%)
Language : English
Default : Yes
Forced : No

Text #2
ID : 7
Format : PGS
Muxing mode : zlib
Codec ID : S_HDMV/PGS
Codec ID/Info : Picture based subtitle format used on BDs/HD-DVDs
Duration : 1 h 52 min
Bit rate : 24.1 kb/s
Count of elements : 2461
Stream size : 19.3 MiB (0%)
Language : Chinese
Default : No
Forced : No

Text #3
ID : 8
Format : PGS
Muxing mode : zlib
Codec ID : S_HDMV/PGS
Codec ID/Info : Picture based subtitle format used on BDs/HD-DVDs
Duration : 1 h 52 min
Bit rate : 22.7 kb/s
Count of elements : 2344
Stream size : 18.2 MiB (0%)
Language : Czech
Default : No
Forced : No

Text #4
ID : 9
Format : PGS
Muxing mode : zlib
Codec ID : S_HDMV/PGS
Codec ID/Info : Picture based subtitle format used on BDs/HD-DVDs
Duration : 1 h 52 min
Bit rate : 20.5 kb/s
Count of elements : 1898
Stream size : 16.4 MiB (0%)
Language : Dutch
Default : No
Forced : No

Text #5
ID : 10
Format : PGS
Muxing mode : zlib
Codec ID : S_HDMV/PGS
Codec ID/Info : Picture based subtitle format used on BDs/HD-DVDs
Duration : 1 h 58 min
Bit rate : 22.7 kb/s
Count of elements : 2360
Stream size : 19.2 MiB (0%)
Language : French
Default : No
Forced : No

Text #6
ID : 11
Format : PGS
Muxing mode : zlib
Codec ID : S_HDMV/PGS
Codec ID/Info : Picture based subtitle format used on BDs/HD-DVDs
Duration : 1 h 52 min
Bit rate : 30.2 kb/s
Count of elements : 2346
Stream size : 24.2 MiB (0%)
Language : German
Default : No
Forced : No

Text #7
ID : 12
Format : PGS
Muxing mode : zlib
Codec ID : S_HDMV/PGS
Codec ID/Info : Picture based subtitle format used on BDs/HD-DVDs
Duration : 1 h 52 min
Bit rate : 28.3 kb/s
Count of elements : 2446
Stream size : 22.7 MiB (0%)
Language : Italian
Default : No
Forced : No

Text #8
ID : 13
Format : PGS
Muxing mode : zlib
Codec ID : S_HDMV/PGS
Codec ID/Info : Picture based subtitle format used on BDs/HD-DVDs
Duration : 1 h 52 min
Bit rate : 23.4 kb/s
Count of elements : 2332
Stream size : 18.8 MiB (0%)
Language : Norwegian
Default : No
Forced : No

Text #9
ID : 14
Format : PGS
Muxing mode : zlib
Codec ID : S_HDMV/PGS
Codec ID/Info : Picture based subtitle format used on BDs/HD-DVDs
Duration : 1 h 52 min
Bit rate : 19.5 kb/s
Count of elements : 2242
Stream size : 15.6 MiB (0%)
Language : Polish
Default : No
Forced : No

Text #10
ID : 15
Format : PGS
Muxing mode : zlib
Codec ID : S_HDMV/PGS
Codec ID/Info : Picture based subtitle format used on BDs/HD-DVDs
Duration : 1 h 54 min
Bit rate : 24.8 kb/s
Count of elements : 2333
Stream size : 20.3 MiB (0%)
Language : Portuguese
Default : No
Forced : No

Text #11
ID : 16
Format : PGS
Muxing mode : zlib
Codec ID : S_HDMV/PGS
Codec ID/Info : Picture based subtitle format used on BDs/HD-DVDs
Duration : 1 h 54 min
Bit rate : 29.1 kb/s
Count of elements : 2442
Stream size : 23.9 MiB (0%)
Language : Spanish
Default : No
Forced : No

Text #12
ID : 17
Format : PGS
Muxing mode : zlib
Codec ID : S_HDMV/PGS
Codec ID/Info : Picture based subtitle format used on BDs/HD-DVDs
Duration : 1 h 58 min
Bit rate : 23.4 kb/s
Count of elements : 1952
Stream size : 19.8 MiB (0%)
Language : Swedish
Default : No
Forced : No

Menu
00:00:00.000 : :Start
00:06:29.472 : :Columbia University Research Lab
00:09:22.937 : :Bitten by a Spider
00:14:56.187 : :Norman Tests the Performance Enhancers
00:17:50.695 : :A Big Change
00:21:53.604 : :Great Reflexes
00:23:28.699 : :Fight With Flash
00:25:18.767 : :Scaling the Heights
00:34:35.115 : :With Great Power Comes Great Responsibility
00:40:22.170 : :The Wrestling Match
00:41:44.127 : :Enter the Thief
00:43:13.883 : :The Death of Uncle Ben
00:44:40.011 : :Chasing Uncle Ben's Killer
00:54:32.978 : :Spider-Man to the Rescue
00:55:52.599 : :J. Jonah Jameson
01:00:48.937 : :Peter's Photos of Spider-Man
01:04:20.857 : :World Unity Festival
01:05:57.036 : :Battle Over Times Square
01:12:12.370 : :Norman Meets the Goblin
01:14:18.871 : :Goblin Terrorizes the Bugle
01:15:48.711 : :The Goblin's Proposal
01:19:35.521 : :The Alley Kiss
01:22:06.463 : :Hot Time With the Goblin
01:25:13.609 : :Thanksgiving Dinner
01:30:39.225 : :Goblin Attacks Aunt May
01:39:36.721 : :The Queensboro Bridge
01:45:08.385 : :A Final Battle
01:50:27.913 : :Norman's Funeral





Spider-Man (2002)


Spider-Man (2002)


Spider-Man (2002)


Spider-Man (2002)


Spider-Man (2002)