Tags
Language
Tags
February 2023
Su Mo Tu We Th Fr Sa
29 30 31 1 2 3 4
5 6 7 8 9 10 11
12 13 14 15 16 17 18
19 20 21 22 23 24 25
26 27 28 1 2 3 4

Spider-Man: Far from Home (2019)

Posted By: Tavaz
Spider-Man: Far from Home (2019)

Spider-Man: Far from Home (2019)
MKV | 1920x804 | English | H265 @ 5593 kbps | AC-3 @ 640 kbps | 2 h 9 min | 5.73 GiB
Subtitles: 中文, English
Genre: Action, Adventure, Sci-Fi

Following the events of Avengers: Endgame (2019), Spider-Man must step up to take on new threats in a world that has changed forever.,Our friendly neighborhood Super Hero decides to join his best friends Ned, MJ, and the rest of the gang on a European vacation. However, Peter's plan to leave super heroics behind for a few weeks are quickly scrapped when he begrudgingly agrees to help Nick Fury uncover the mystery of several elemental creature attacks, creating havoc across the continent.::Sony Pictures Entertainment,Some time after Thanos was defeated and Tony Stark's sacrifice, Peter Parker returns to high school. Now, Peter is out to see the world with his classmates and is wanting to take a break from being Spider-Man. But his fun filled trip is suddenly sabotaged when a string of mysterious attacks by creatures called Elementals start wreaking havoc all over the world. To make matters more difficult, Peter finds himself recruited by Nick Fury and an inter dimensional newcomer named Quentin Beck/Mysterio to help fight them and uncover the truth behind the attacks.::Blazer346,Shortly after the cataclysmic events of Avengers: Endgame (2019), Peter Parker is yearning for normalcy in a post-Blip world. To blow off steam, Parker and his classmates from the Mid-town School of Science and Technology go on a two-week summer field trip to Europe, and this time, he is determined to ask his crush, MJ, out. However, Nick Fury, the no-nonsense founder of the Avengers, has other plans in store for the sixteen-year-old super-hero, as the Elementals, all-powerful, inter-dimensional creatures formed from the primary elements, start to materialise on Earth, wreaking havoc across the world. Surprisingly, only one man has stood up against this new form of threat and managed to tell the tale: Mysterio, a brave new hero. As humankind's latest adversary threatens to wipe Venice off the face of the Earth, Spider-Man joins forces with Mysterio to lend a hand in the battle, only to make a calamitous mistake. In the end, was Tony Stark wrong about Peter?::Nick Riganas

Spider-Man.Far.from.Home.2019.BluRay.1080p.x265.10bit.MNHD-FRDS.mkv (5.7 GB)



General
Unique ID : 174366798556448046185436317829906472349 (0x832DD2E8CBB1139A1CC067A444C29D9D)
Complete name : ./Spider-Man.Far.from.Home.2019.BluRay.1080p.x265.10bit.MNHD-FRDS.mkv
Format : Matroska
Format version : Version 4 / Version 2
File size : 5.73 GiB
Duration : 2 h 9 min
Overall bit rate : 6 345 kb/s
Encoded date : UTC 2019-09-21 17:29:42
Writing application : mkvmerge v37.0.0 ('Leave It') 64-bit
Writing library : libebml v1.3.9 + libmatroska v1.5.2

Video
ID : 1
Format : HEVC
Format/Info : High Efficiency Video Coding
Format profile : Main 10@L4@Main
Codec ID : V_MPEGH/ISO/HEVC
Duration : 2 h 9 min
Bit rate : 5 594 kb/s
Width : 1 920 pixels
Height : 804 pixels
Display aspect ratio : 2.40:1
Frame rate mode : Constant
Frame rate : 23.976 (24000/1001) FPS
Color space : YUV
Chroma subsampling : 4:2:0
Bit depth : 10 bits
Bits/(Pixel*Frame) : 0.151
Stream size : 5.06 GiB (88%)
Title : MNHD-FRDS
Writing library : x265 3.1+2-g764455672+26:[Windows][GCC 8.3.0][64 bit] Yuuki 10bit+8bit+12bit
Encoding settings : rc=crf / crf=18.0000 / qcomp=0.70 / qpstep=4 / stats-write=0 / stats-read=0 / no-lossless / no-cu-lossless / aq-mode=1 / aq-strength=0.80 / cbqpoffs=-3 / crqpoffs=-3 / ipratio=1.40 / pbratio=1.30 / psy-rd=2.00 / psy-rdoq=5.00 / deblock=-1:-1 / ref=5 / limit-refs=1 / limit-modes / bframes=8 / b-adapt=2 / bframe-bias=0 / b-pyramid / b-intra / weightp / weightb / min-keyint=23 / max-keyint=360 / rc-lookahead=60 / gop-lookahead=0 / scenecut=40 / radl=0 / max-cu-size=32 / min-cu-size=8 / me=3 / subme=5 / merange=25 / rdoq-level=2 / rd=4 / rdpenalty=1 / dynamic-rd=0.00 / no-rd-refine / ––- / cutree / no-sao / no-rect / no-amp / no-open-gop / wpp / pmode / pme / no-psnr / no-ssim / nr-intra=0 / nr-inter=0 / no-constrained-intra / no-strong-intra-smoothing / max-tu-size=32 / tu-inter-depth=2 / tu-intra-depth=2 / limit-tu=0 / qg-size=32 / qpmax=69 / qpmin=0 / ––- / cpuid=1111039 / frame-threads=4 / numa-pools=24 / log-level=2 / csv / csv-log-level=0 / input-csp=1 / input-res=1920x804 / interlace=0 / level-idc=0 / high-tier=1 / uhd-bd=0 / no-allow-non-conformance / no-repeat-headers / no-aud / no-hrd / info / hash=0 / no-temporal-layers / lookahead-slices=0 / no-splice / no-intra-refresh / no-ssim-rd / signhide / no-tskip / max-merge=4 / temporal-mvp / no-analyze-src-pics / no-sao-non-deblock / no-early-skip / no-rskip / no-fast-intra / no-tskip-fast / no-splitrd-skip / zone-count=0 / no-strict-cbr / no-rc-grain / no-const-vbv / sar=0 / overscan=0 / videoformat=5 / range=0 / colorprim=1 / transfer=2 / colormatrix=2 / chromaloc=0 / display-window=0cll=0,0 / min-luma=0 / max-luma=1023 / log2-max-poc-lsb=8 / vui-timing-info / vui-hrd-info / slices=1 / no-opt-qp-pps / no-opt-ref-list-length-pps / no-multi-pass-opt-rps / scenecut-bias=0.05 / no-opt-cu-delta-qp / no-aq-motion / no-hdr / no-hdr-opt / no-dhdr10-opt / no-idr-recovery-sei / analysis-reuse-level=5 / scale-factor=0 / refine-intra=0 / refine-inter=0 / refine-mv=0 / refine-ctu-distortion=0 / no-limit-sao / ctu-info=0 / no-lowpass-dct / refine-analysis-type=0 / copy-pic=1 / max-ausize-factor=1.0 / no-dynamic-refine / no-single-sei / no-hevc-aq / no-svt / no-field / qp-adaptation-range=1.00
Default : Yes
Forced : No
Color range : Limited
Color primaries : BT.709

Audio
ID : 2
Format : AC-3
Format/Info : Audio Coding 3
Format settings, Endianness : Big
Codec ID : A_AC3
Duration : 2 h 9 min
Bit rate mode : Constant
Bit rate : 640 kb/s
Channel(s) : 6 channels
Channel positions : Front: L C R, Side: L R, LFE
Sampling rate : 48.0 kHz
Frame rate : 31.250 FPS (1536 SPF)
Bit depth : 16 bits
Compression mode : Lossy
Stream size : 592 MiB (10%)
Language : English
Service kind : Complete Main
Default : Yes
Forced : No

Text #1
ID : 3
Format : PGS
Muxing mode : zlib
Codec ID : S_HDMV/PGS
Codec ID/Info : Picture based subtitle format used on BDs/HD-DVDs
Duration : 2 h 8 min
Bit rate : 42.1 kb/s
Count of elements : 3858
Stream size : 38.6 MiB (1%)
Language : English
Default : Yes
Forced : No

Text #2
ID : 4
Format : PGS
Muxing mode : zlib
Codec ID : S_HDMV/PGS
Codec ID/Info : Picture based subtitle format used on BDs/HD-DVDs
Duration : 2 h 8 min
Bit rate : 29.8 kb/s
Count of elements : 3301
Stream size : 27.3 MiB (0%)
Title : 简体中文
Language : Chinese
Default : No
Forced : No

Text #3
ID : 5
Format : PGS
Muxing mode : zlib
Codec ID : S_HDMV/PGS
Codec ID/Info : Picture based subtitle format used on BDs/HD-DVDs
Duration : 2 h 8 min
Bit rate : 32.0 kb/s
Count of elements : 3301
Stream size : 29.4 MiB (1%)
Title : 繁体中文
Language : Chinese
Default : No
Forced : No

Text #4
ID : 6
Format : PGS
Muxing mode : zlib
Codec ID : S_HDMV/PGS
Codec ID/Info : Picture based subtitle format used on BDs/HD-DVDs
Duration : 2 h 8 min
Bit rate : 54.1 kb/s
Count of elements : 3301
Stream size : 49.7 MiB (1%)
Title : 简英双语
Language : Chinese
Default : No
Forced : No

Text #5
ID : 7
Format : PGS
Muxing mode : zlib
Codec ID : S_HDMV/PGS
Codec ID/Info : Picture based subtitle format used on BDs/HD-DVDs
Duration : 2 h 8 min
Bit rate : 56.3 kb/s
Count of elements : 3301
Stream size : 51.6 MiB (1%)
Title : 繁英双语
Language : Chinese
Default : No
Forced : No

Menu
00:00:00.000 : en:绗?01 绔?
00:09:35.033 : en:绗?02 绔?
00:16:06.716 : en:绗?03 绔?
00:25:18.475 : en:绗?04 绔?
00:35:26.499 : en:绗?05 绔?
00:41:57.014 : en:绗?06 绔?
00:49:50.029 : en:绗?07 绔?
00:57:09.509 : en:绗?08 绔?
01:04:50.637 : en:绗?09 绔?
01:15:57.219 : en:绗?10 绔?
01:22:49.089 : en:绗?11 绔?
01:29:25.193 : en:绗?12 绔?
01:36:43.256 : en:绗?13 绔?
01:44:47.364 : en:绗?14 绔?
01:52:17.397 : en:绗?15 绔?
01:57:45.433 : en:绗?16 绔?





Spider-Man: Far from Home (2019)


Spider-Man: Far from Home (2019)


Spider-Man: Far from Home (2019)


Spider-Man: Far from Home (2019)


Spider-Man: Far from Home (2019)