Tags
Language
Tags

Spreading Darkness (2017)

Posted By: JohnSmith
Spreading Darkness (2017)

Spreading Darkness (2017)
HDRip | AVI / XviD@1530 kb/s | 720x304 | 1h 43mn | 1.38 GB | English: AC3, 384 kb/s (6 ch)
WEB-DL 720p | AVI / XviD@3590 kb/s | 1280x532 | 1h 43mn | 2.87 GB | English: AC3, 384 kb/s (6 ch)
WEB-DL 1080p | MKV / AVC@4487 kb/s | 1916x796 | 1h 43mn | 3.58 GB
English: AC3, 384 kb/s (6 ch) | Subtitles: English
Genre: Comedy | Crime | Drama | Fantasy | Mystery | Thriller

Those who let doom into their hearts are no longer just victims; they're spreading darkness. The potential riches to be made from a brilliant invention suck an morally-tainted businessman, a talented actress, a psychiatrist, and an aspiring rock star into a dark, twisted spiral heading straight into the heart of evil.




General
Complete name : D:\Downloads\Spreading.Darkness.2017.HDRip.XviD.AC3-EVO\Spreading.Darkness.2017.HDRip.XviD.AC3-EVO.avi
Format : AVI
Format/Info : Audio Video Interleave
Format profile : OpenDML
Format settings : rec
File size : 1.38 GiB
Duration : 1 h 43 min
Overall bit rate : 1 918 kb/s
Writing application : AVI-Mux GUI 1.17.8.3, Feb 16 201019:42:50

Video
ID : 0
Format : MPEG-4 Visual
Format profile : Advanced Simple@L5
Format settings, BVOP : 2
Format settings, QPel : No
Format settings, GMC : No warppoints
Format settings, Matrix : Default (H.263)
Muxing mode : Packed bitstream
Codec ID : XVID
Codec ID/Hint : XviD
Duration : 1 h 43 min
Bit rate : 1 529 kb/s
Width : 720 pixels
Height : 304 pixels
Display aspect ratio : 2.35:1
Frame rate : 23.976 (24000/1001) FPS
Color space : YUV
Chroma subsampling : 4:2:0
Bit depth : 8 bits
Scan type : Progressive
Compression mode : Lossy
Bits/(Pixel*Frame) : 0.291
Stream size : 1.10 GiB (80%)
Writing library : XviD 66

Audio
ID : 1
Format : AC-3
Format/Info : Audio Coding 3
Format settings, Endianness : Big
Codec ID : 2000
Duration : 1 h 43 min
Bit rate mode : Constant
Bit rate : 384 kb/s
Channel(s) : 6 channels
Channel positions : Front: L C R, Side: L R, LFE
Sampling rate : 48.0 kHz
Frame rate : 31.250 FPS (1536 spf)
Bit depth : 16 bits
Compression mode : Lossy
Stream size : 284 MiB (20%)
Alignment : Aligned on interleaves
Interleave, duration : 64 ms (1.53 video frames)
Interleave, preload duratio : 192 ms
Title : T2_Audio - English
Service kind : Complete Main





General
Complete name : C:\Spreading.Darkness.2017.720p.WEB-DL.XviD.AC3-FGT.avi
Format : AVI
Format/Info : Audio Video Interleave
Format profile : OpenDML
File size : 2.87 GiB
Duration : 1 h 43 min
Overall bit rate : 3 982 kb/s
Movie name : Spreading.Darkness.2017.720p.WEB-DL.XviD.AC3-FGT
Writing library : VirtualDub build 35491/release
Comment : Spreading.Darkness.2017.720p.WEB-DL.XviD.AC3-FGT

Video
ID : 0
Format : MPEG-4 Visual
Format profile : Simple@L5
Format settings, BVOP : No
Format settings, QPel : No
Format settings, GMC : No warppoints
Format settings, Matrix : Default (H.263)
Codec ID : XVID
Codec ID/Hint : XviD
Duration : 1 h 43 min
Bit rate : 3 587 kb/s
Width : 1 280 pixels
Height : 532 pixels
Display aspect ratio : 2.40:1
Frame rate : 23.976 (24000/1001) FPS
Color space : YUV
Chroma subsampling : 4:2:0
Bit depth : 8 bits
Scan type : Progressive
Compression mode : Lossy
Bits/(Pixel*Frame) : 0.220
Stream size : 2.59 GiB (90%)
Writing library : Lavc58.1.100

Audio
ID : 1
Format : AC-3
Format/Info : Audio Coding 3
Format settings, Endianness : Big
Codec ID : 2000
Duration : 1 h 43 min
Bit rate mode : Constant
Bit rate : 384 kb/s
Channel(s) : 6 channels
Channel positions : Front: L C R, Side: L R, LFE
Sampling rate : 48.0 kHz
Frame rate : 31.250 FPS (1536 spf)
Bit depth : 16 bits
Compression mode : Lossy
Stream size : 284 MiB (10%)
Alignment : Aligned on interleaves
Interleave, duration : 42 ms (1.00 video frame)
Interleave, preload duratio : 512 ms
Service kind : Complete Main





General
Unique ID : 170838752963280603820435403438918436656 (0x808658D4F379D25C940572234DE78730)
Complete name : C:\Spreading.Darkness.2017.1080p.WEB-DL.DD5.1.H264-FGT.mkv
Format : Matroska
Format version : Version 4 / Version 2
File size : 3.58 GiB
Duration : 1 h 43 min
Overall bit rate : 4 970 kb/s
Movie name : Spreading.Darkness.2017.1080p.WEB-DL.DD5.1.H264-FGT
Encoded date : UTC 2017-11-14 10:45:40
Writing application : mkvmerge v17.0.0 ('Be Ur Friend') 64-bit
Writing library : libebml v1.3.5 + libmatroska v1.4.8
Cover : Yes
Attachments : small_cover.jpg / small_cover_land.jpg / cover.jpg / cover_land.jpg

Video
ID : 1
Format : AVC
Format/Info : Advanced Video Codec
Format profile : High@L4
Format settings, CABAC : Yes
Format settings, ReFrames : 5 frames
Codec ID : V_MPEG4/ISO/AVC
Duration : 1 h 43 min
Bit rate : 4 487 kb/s
Width : 1 916 pixels
Height : 796 pixels
Display aspect ratio : 2.40:1
Frame rate mode : Constant
Frame rate : 23.976 (24000/1001) FPS
Color space : YUV
Chroma subsampling : 4:2:0
Bit depth : 8 bits
Scan type : Progressive
Bits/(Pixel*Frame) : 0.123
Stream size : 3.24 GiB (90%)
Title : Spreading.Darkness.2017.1080p.WEB-DL.DD5.1.H264-FGT
Language : English
Default : Yes
Forced : No
Color range : Limited
Color primaries : BT.709
Transfer characteristics : BT.709
Matrix coefficients : BT.709

Audio
ID : 2
Format : AC-3
Format/Info : Audio Coding 3
Format settings, Endianness : Big
Codec ID : A_AC3
Duration : 1 h 43 min
Bit rate mode : Constant
Bit rate : 384 kb/s
Channel(s) : 6 channels
Channel positions : Front: L C R, Side: L R, LFE
Sampling rate : 48.0 kHz
Frame rate : 31.250 FPS (1536 spf)
Bit depth : 16 bits
Compression mode : Lossy
Delay relative to video : -42 ms
Stream size : 284 MiB (8%)
Title : Spreading.Darkness.2017.1080p.WEB-DL.DD5.1.H264-FGT
Language : English
Service kind : Complete Main
Default : Yes
Forced : No

Text
ID : 3
Format : UTF-8
Codec ID : S_TEXT/UTF8
Codec ID/Info : UTF-8 Plain Text
Language : English
Default : Yes
Forced : No

Menu
00:00:00.000 : en:Chapter 1
00:17:12.323 : en:Chapter 2
00:32:21.023 : en:Chapter 3
00:48:58.937 : en:Chapter 4
01:05:27.216 : en:Chapter 5
01:21:05.404 : en:Chapter 6
01:31:31.196 : en:Chapter 7
01:39:33.261 : en:Chapter 8




Screenshots HDRip

Spreading Darkness (2017)

Spreading Darkness (2017)

Spreading Darkness (2017)


Screenshots WEB-DL 720p

Spreading Darkness (2017)

Spreading Darkness (2017)

Spreading Darkness (2017)


Screenshots WEB-DL 1080p

Spreading Darkness (2017)

Spreading Darkness (2017)

Spreading Darkness (2017)