Tags
Language
Tags

Spring Break (1983)

Posted By: Tavaz
1080p (FullHD) / WEB-DL IMDb
Spring Break (1983)

Spring Break (1983)
WEB-DL | MKV | 1920x1080 | English | H264 @ 13877 kbps | E-AC-3 @ 224 kbps | 1 h 41 min | 9.96 GiB
Subtitles: English
Genre: Comedy, Romance

Two sets of two college guys spend a spring break together in Fort Lauderdale, Florida. There they have lots of fun in and out of the sun.

Spring.Break.1983.1080p.AMZN.WEB-DL.H264.DDP2.0.SNAKE.part1.rar (5.2 GB)
Spring.Break.1983.1080p.AMZN.WEB-DL.H264.DDP2.0.SNAKE.part2.rar (4.8 GB)



General
Unique ID : 23782913827698893983079162318404573832 (0x11E46C2EE503D7DCC556DCDB9335DA88)
Complete name : ./0d2d7c995b42495bb4d1e1babcda54bf.mkv
Format : Matroska
Format version : Version 4 / Version 2
File size : 9.96 GiB
Duration : 1 h 41 min
Overall bit rate : 14.1 Mb/s
Encoded date : UTC 2021-07-31 19:37:49
Writing application : mkvmerge v59.0.0 ('Shining Star') 64-bit
Writing library : libebml v1.4.2 + libmatroska v1.6.4

Video
ID : 1
Format : AVC
Format/Info : Advanced Video Codec
Format profile : High@L4
Format settings : CABAC / 4 Ref Frames
Format settings, CABAC : Yes
Format settings, RefFrames : 4 frames
Codec ID : V_MPEG4/ISO/AVC
Duration : 1 h 41 min
Bit rate : 13.9 Mb/s
Width : 1 920 pixels
Height : 1 080 pixels
Display aspect ratio : 16:9
Frame rate mode : Constant
Frame rate : 23.976 (24000/1001) FPS
Color space : YUV
Chroma subsampling : 4:2:0
Bit depth : 8 bits
Scan type : Progressive
Bits/(Pixel*Frame) : 0.279
Stream size : 9.80 GiB (98%)
Default : Yes
Forced : No
Color range : Limited
Color primaries : BT.709
Transfer characteristics : BT.709
Matrix coefficients : BT.709

Audio
ID : 2
Format : E-AC-3
Format/Info : Enhanced Audio Coding 3
Format settings, Endianness : Big
Codec ID : A_EAC3
Duration : 1 h 41 min
Bit rate mode : Constant
Bit rate : 224 kb/s
Channel(s) : 2 channels
Channel positions : Front: L R
Sampling rate : 48.0 kHz
Frame rate : 187.500 FPS (256 SPF)
Compression mode : Lossy
Stream size : 162 MiB (2%)
Language : English
Service kind : Complete Main
Default : Yes
Forced : No

Text
ID : 3
Format : UTF-8
Codec ID : S_TEXT/UTF8
Codec ID/Info : UTF-8 Plain Text
Duration : 1 h 40 min
Bit rate : 56 b/s
Count of elements : 1411
Stream size : 41.7 KiB (0%)
Language : English
Default : Yes
Forced : No





Spring Break (1983)


Spring Break (1983)


Spring Break (1983)


Spring Break (1983)


Spring Break (1983)