Star Wars: Rebels S04E09

Posted By: Tavaz
1080p (FullHD) / WEB-DL IMDb
Star Wars: Rebels S04E09

Star Wars: Rebels S04E09
WEB-DL | MKV | 1920x1080 | English / English | H264 @ 5033 kbps | AC-3 @ 384 kbps | 22 min 7 s | 883 MiB
Subtitles: English
Genre: Animation, Action, Adventure, Sci-Fi

A brave and clever ragtag starship crew stands up against the evil Empire as it tightens its grip on the galaxy and hunts down the last of the Jedi Knights.



Star.Wars.Rebels.S04E09.Rebel.Assault.1080p.WEB-DL.DD5.1.AAC2.0.H.264-YFN.mkv (882.7 MB)



General
Unique ID : 231744451817953448076807411447337279200 (0xAE585BA0A82C5753B3493B35C4CF5EE0)
Complete name : ./Star.Wars.Rebels.S04E09.Rebel.Assault.1080p.WEB-DL.DD5.1.AAC2.0.H.264-YFN.mkv
Format : Matroska
Format version : Version 2
File size : 883 MiB
Duration : 22 min 7 s
Overall bit rate : 5 579 kb/s
Encoded date : UTC 2017-11-14 08:34:53
Writing application : mkvmerge v17.0.0 ('Be Ur Friend') 64-bit
Writing library : libebml v1.3.5 + libmatroska v1.4.8

Video
ID : 1
Format : AVC
Format/Info : Advanced Video Codec
Format profile : High@L4
Format settings : CABAC / 4 Ref Frames
Format settings, CABAC : Yes
Format settings, RefFrames : 4 frames
Codec ID : V_MPEG4/ISO/AVC
Duration : 22 min 7 s
Bit rate : 5 034 kb/s
Width : 1 920 pixels
Height : 1 080 pixels
Display aspect ratio : 16:9
Frame rate mode : Constant
Frame rate : 23.976 (24000/1001) FPS
Color space : YUV
Chroma subsampling : 4:2:0
Bit depth : 8 bits
Scan type : Progressive
Bits/(Pixel*Frame) : 0.101
Stream size : 796 MiB (90%)
Title : H.264
Language : English
Default : Yes
Forced : No
Color range : Limited
Color primaries : BT.709
Transfer characteristics : BT.709
Matrix coefficients : BT.709

Audio #1
ID : 2
Format : AC-3
Format/Info : Audio Coding 3
Format settings, Endianness : Big
Codec ID : A_AC3
Duration : 22 min 7 s
Bit rate mode : Constant
Bit rate : 384 kb/s
Channel(s) : 6 channels
Channel positions : Front: L C R, Side: L R, LFE
Sampling rate : 48.0 kHz
Frame rate : 31.250 FPS (1536 SPF)
Bit depth : 16 bits
Compression mode : Lossy
Stream size : 60.8 MiB (7%)
Title : DD5.1
Language : English
Service kind : Complete Main
Default : Yes
Forced : No

Audio #2
ID : 3
Format : AAC
Format/Info : Advanced Audio Codec
Format profile : LC
Codec ID : A_AAC-2
Duration : 22 min 7 s
Bit rate : 159 kb/s
Channel(s) : 2 channels
Channel positions : Front: L R
Sampling rate : 48.0 kHz
Frame rate : 46.875 FPS (1024 SPF)
Compression mode : Lossy
Stream size : 25.1 MiB (3%)
Title : AAC2.0
Language : English
Default : No
Forced : No

Text
ID : 4
Format : UTF-8
Codec ID : S_TEXT/UTF8
Codec ID/Info : UTF-8 Plain Text
Duration : 21 min 29 s
Bit rate : 42 b/s
Count of elements : 262
Stream size : 6.64 KiB (0%)
Title : CC
Language : English
Default : No
Forced : No





Star Wars: Rebels S04E09


Star Wars: Rebels S04E09


Star Wars: Rebels S04E09


Star Wars: Rebels S04E09


Star Wars: Rebels S04E09

All episodes