Tags
Language
Tags

Star Wars: Episode III - Revenge of the Sith (2005) [Remastered]

Posted By: Without
1080p (FullHD) / BDRip IMDb
Star Wars: Episode III - Revenge of the Sith (2005) [Remastered]

Star Wars: Episode III - Revenge of the Sith (2005)
BRRip 720p | MP4 | 2 h 20 min | 1.69 GB | 1280x536 | AVC@1500 kb/s | English AAC@224 kb/s, 2 ch
BRRip 1080p | MP4 | 2 h 20 min | 2.67 GB | 1920x804 | AVC@2500 kb/s | English AAC@224 kb/s, 2 ch
BDRip 720p | MKV | 2 h 20 min | 6.22 GB | 1280x536 | AVC@5286 kb/s
English AC3@640 kb/s, 6 ch | English AAC@129 kb/s, 2 ch (Commentary)
BDRip 1080p | MKV | 2 h 20 min | 23.0 GB | 1920x804 | AVC@18.7 Mb/s
English DTS-HD MA@4325 kb/s, 8 ch | English AAC@129 kb/s, 2 ch (Commentary)
Subs: English, Italiano, German, Svenska, Norsk, Dansk, Suomi
Genre: Action | Adventure | Fantasy | Sci-Fi

Three years into the Clone Wars, the Jedi rescue Palpatine from Count Dooku. As Obi-Wan pursues a new threat, Anakin acts as a double agent between the Jedi Council and Palpatine and is lured into a sinister plan to rule the galaxy.

IMDB - Nominated for 1 Oscar. Another 26 wins & 61 nominations.


General
Star.Wars.Episode.III.Revenge.of.the.Sith.2005.REMASTERED.720p.BluRay.H264.AAC.mp4
Format : MPEG-4
Format profile : Base Media
Codec ID : isom (isom/iso2/avc1/mp41)
File size : 1.69 GB
Duration : 2 h 20 min
Overall bit rate : 1731 kb/s
Encoded date : UTC 2020-05-03 10:13:43
Tagged date : UTC 2020-05-03 10:13:43
Writing application : Lavf58.20.100

Video
ID : 1
Format : AVC
Format/Info : Advanced Video Codec
Format profile : High@L4.1
Format settings, CABAC : Yes
Format settings, ReFrames : 4 frames
Codec ID : avc1
Codec ID/Info : Advanced Video Coding
Duration : 2 h 20 min
Bit rate : 1500 kb/s
Width : 1280 pixels
Height : 536 pixels
Display aspect ratio : 2.40:1
Frame rate mode : Constant
Frame rate : 23.976 (23976/1000) FPS
Color space : YUV
Chroma subsampling : 4:2:0
Bit depth : 8 bits
Scan type : Progressive
Bits/(Pixel*Frame) : 0.091
Stream size : 1.47 GB (87%)
Writing library : x264 core 152 r2851M ba24899
Encoding settings : cabac=1 / ref=4 / deblock=1:-1:-1 / analyse=0x3:0x113 / me=umh / subme=9 / psy=1 / psy_rd=1.00:0.15 / mixed_ref=1 / me_range=24 / chroma_me=1 / trellis=2 / 8x8dct=1 / cqm=0 / deadzone=21,11 / fast_pskip=1 / chroma_qp_offset=-3 / threads=16 / lookahead_threads=4 / sliced_threads=0 / nr=0 / decimate=1 / interlaced=0 / bluray_compat=0 / constrained_intra=0 / bframes=3 / b_pyramid=2 / b_adapt=2 / b_bias=0 / direct=3 / weightb=1 / open_gop=0 / weightp=2 / keyint=250 / keyint_min=25 / scenecut=40 / intra_refresh=0 / rc_lookahead=50 / rc=2pass / mbtree=1 / bitrate=1500 / ratetol=1.0 / qcomp=0.60 / qpmin=0 / qpmax=69 / qpstep=4 / cplxblur=20.0 / qblur=0.5 / vbv_maxrate=31250 / vbv_bufsize=31250 / nal_hrd=none / filler=0 / ip_ratio=1.40 / aq=3:1.00
Encoded date : UTC 2020-05-03 10:13:43
Tagged date : UTC 2020-05-03 10:13:43

Audio
ID : 2
Format : AAC
Format/Info : Advanced Audio Codec
Format profile : LC
Codec ID : 40
Duration : 2 h 20 min
Bit rate mode : Constant
Bit rate : 224 kb/s
Channel(s) : 2 channels
Channel(s)_Original : 6 channels
Channel positions : Front: L C R, Side: L R, LFE
Sampling rate : 48.0 kHz
Frame rate : 46.875 FPS (1024 spf)
Compression mode : Lossy
Stream size : 224 MB (13%)
Language : English
Default : Yes
Alternate group : 1
Encoded date : UTC 2020-05-03 10:13:43
Tagged date : UTC 2020-05-03 10:13:43


General
Star.Wars.Episode.III.Revenge.of.the.Sith.2005.REMASTERED.1080p.BluRay.H264.AAC.mp4
Format : MPEG-4
Format profile : Base Media
Codec ID : isom (isom/iso2/avc1/mp41)
File size : 2.67 GB
Duration : 2 h 20 min
Overall bit rate : 2730 kb/s
Encoded date : UTC 2020-05-03 11:55:08
Tagged date : UTC 2020-05-03 11:55:08
Writing application : Lavf58.20.100

Video
ID : 1
Format : AVC
Format/Info : Advanced Video Codec
Format profile : High@L4.1
Format settings, CABAC : Yes
Format settings, ReFrames : 4 frames
Codec ID : avc1
Codec ID/Info : Advanced Video Coding
Duration : 2 h 20 min
Bit rate : 2500 kb/s
Width : 1920 pixels
Height : 804 pixels
Display aspect ratio : 2.40:1
Frame rate mode : Constant
Frame rate : 23.976 (23976/1000) FPS
Color space : YUV
Chroma subsampling : 4:2:0
Bit depth : 8 bits
Scan type : Progressive
Bits/(Pixel*Frame) : 0.068
Stream size : 2.45 GB (92%)
Writing library : x264 core 152 r2851M ba24899
Encoding settings : cabac=1 / ref=4 / deblock=1:-1:-1 / analyse=0x3:0x113 / me=umh / subme=9 / psy=1 / psy_rd=1.00:0.15 / mixed_ref=1 / me_range=24 / chroma_me=1 / trellis=2 / 8x8dct=1 / cqm=0 / deadzone=21,11 / fast_pskip=1 / chroma_qp_offset=-3 / threads=16 / lookahead_threads=4 / sliced_threads=0 / nr=0 / decimate=1 / interlaced=0 / bluray_compat=0 / constrained_intra=0 / bframes=3 / b_pyramid=2 / b_adapt=2 / b_bias=0 / direct=3 / weightb=1 / open_gop=0 / weightp=2 / keyint=250 / keyint_min=25 / scenecut=40 / intra_refresh=0 / rc_lookahead=50 / rc=2pass / mbtree=1 / bitrate=2500 / ratetol=1.0 / qcomp=0.60 / qpmin=0 / qpmax=69 / qpstep=4 / cplxblur=20.0 / qblur=0.5 / vbv_maxrate=31250 / vbv_bufsize=31250 / nal_hrd=none / filler=0 / ip_ratio=1.40 / aq=3:1.00
Encoded date : UTC 2020-05-03 11:55:08
Tagged date : UTC 2020-05-03 11:55:08

Audio
ID : 2
Format : AAC
Format/Info : Advanced Audio Codec
Format profile : LC
Codec ID : 40
Duration : 2 h 20 min
Bit rate mode : Constant
Bit rate : 224 kb/s
Channel(s) : 2 channels
Channel(s)_Original : 6 channels
Channel positions : Front: L C R, Side: L R, LFE
Sampling rate : 48.0 kHz
Frame rate : 46.875 FPS (1024 spf)
Compression mode : Lossy
Stream size : 224 MB (8%)
Language : English
Default : Yes
Alternate group : 1
Encoded date : UTC 2020-05-03 11:55:08
Tagged date : UTC 2020-05-03 11:55:08


General
Star.Wars.Episode.III.Revenge.of.the.Sith.2005.INTERNAL.REMASTERED.720p.BluRay.X264-AMIABLE.mkv
Format : Matroska
Format version : Version 4 / Version 2
File size : 6.22 GB
Duration : 2 h 20 min
Overall bit rate : 6356 kb/s
Writing application : mkvmerge v44.0.0 ('Domino') 64-bit
Writing library : libebml v1.3.10 + libmatroska v1.5.2

Video
ID : 1
Format : AVC
Format/Info : Advanced Video Codec
Format profile : High@L4.1
Format settings, CABAC : Yes
Format settings, ReFrames : 12 frames
Codec ID : V_MPEG4/ISO/AVC
Duration : 2 h 20 min
Bit rate : 5286 kb/s
Width : 1280 pixels
Height : 536 pixels
Display aspect ratio : 2.40:1
Frame rate mode : Constant
Frame rate : 23.976 (24000/1001) FPS
Color space : YUV
Chroma subsampling : 4:2:0
Bit depth : 8 bits
Scan type : Progressive
Bits/(Pixel*Frame) : 0.321
Stream size : 5.17 GB (83%)
Writing library : x264 core 159 r2991 1771b55
Encoding settings : cabac=1 / ref=12 / deblock=1:-3:-3 / analyse=0x3:0x133 / me=umh / subme=10 / psy=1 / psy_rd=1.05:0.00 / mixed_ref=1 / me_range=32 / chroma_me=1 / trellis=2 / 8x8dct=1 / cqm=0 / deadzone=21,11 / fast_pskip=0 / chroma_qp_offset=-2 / threads=17 / lookahead_threads=4 / sliced_threads=0 / nr=0 / decimate=0 / interlaced=0 / bluray_compat=0 / constrained_intra=0 / bframes=10 / b_pyramid=2 / b_adapt=2 / b_bias=0 / direct=3 / weightb=1 / open_gop=0 / weightp=2 / keyint=240 / keyint_min=24 / scenecut=40 / intra_refresh=0 / rc=crf / mbtree=0 / crf=17.0 / qcomp=0.60 / qpmin=0 / qpmax=69 / qpstep=4 / ip_ratio=1.30 / pb_ratio=1.20 / aq=3:0.70
Default : Yes
Forced : No
Color range : Limited
Matrix coefficients : BT.709

Audio #1
ID : 2
Format : AC-3
Format/Info : Audio Coding 3
Mode extension : CM (complete main)
Format settings, Endianness : Big
Codec ID : A_AC3
Duration : 2 h 20 min
Bit rate mode : Constant
Bit rate : 640 kb/s
Channel(s) : 6 channels
Channel positions : Front: L C R, Side: L R, LFE
Sampling rate : 48.0 kHz
Frame rate : 31.250 FPS (1536 spf)
Bit depth : 16 bits
Compression mode : Lossy
Stream size : 641 MB (10%)
Language : English
Default : Yes
Forced : No

Audio #2
ID : 18
Format : AAC
Format/Info : Advanced Audio Codec
Format profile : LC
Codec ID : A_AAC
Duration : 2 h 20 min
Bit rate : 129 kb/s
Channel(s) : 2 channels
Channel positions : Front: L R
Sampling rate : 48.0 kHz
Frame rate : 46.875 FPS (1024 spf)
Compression mode : Lossy
Delay relative to video : 9 ms
Stream size : 130 MB (2%)
Title : Commentary with George Lucas, Rick McCallum, Rob Coleman, John Knoll, and Roger Guyett
Language : English
Default : No
Forced : No

Audio #3
ID : 19
Format : AAC
Format/Info : Advanced Audio Codec
Format profile : LC
Codec ID : A_AAC
Duration : 2 h 20 min
Bit rate : 121 kb/s
Channel(s) : 2 channels
Channel positions : Front: L R
Sampling rate : 48.0 kHz
Frame rate : 46.875 FPS (1024 spf)
Compression mode : Lossy
Delay relative to video : 9 ms
Stream size : 121 MB (2%)
Title : Commentary with Cast and Crew
Language : English
Default : No
Forced : No

Text #1
ID : 3
Format : UTF-8
Codec ID : S_TEXT/UTF8
Codec ID/Info : UTF-8 Plain Text
Duration : 2 h 7 min
Bit rate : 40 b/s
Count of elements : 1192
Stream size : 38.2 KiB (0%)
Title : Stripped SRT
Language : English
Default : No
Forced : No

Text #2
ID : 4
Format : UTF-8
Codec ID : S_TEXT/UTF8
Codec ID/Info : UTF-8 Plain Text
Duration : 2 h 12 min
Bit rate : 45 b/s
Count of elements : 1487
Stream size : 43.7 KiB (0%)
Title : SDH SRT
Language : English
Default : No
Forced : No

Text #3
ID : 5
Format : PGS
Muxing mode : zlib
Codec ID : S_HDMV/PGS
Codec ID/Info : Picture based subtitle format used on BDs/HD-DVDs
Duration : 2 h 12 min
Bit rate : 29.8 kb/s
Count of elements : 2974
Stream size : 28.2 MB (0%)
Title : English SDH
Language : English
Default : No
Forced : No

Text #4
ID : 6
Format : PGS
Muxing mode : zlib
Codec ID : S_HDMV/PGS
Codec ID/Info : Picture based subtitle format used on BDs/HD-DVDs
Duration : 2 h 19 min
Bit rate : 81.5 kb/s
Count of elements : 5172
Stream size : 81.4 MB (1%)
Title : Commentary with George Lucas, Rick McCallum, Rob Coleman, John Knoll, and Roger Guyett
Language : English
Default : No
Forced : No

Text #5
ID : 7
Format : PGS
Muxing mode : zlib
Codec ID : S_HDMV/PGS
Codec ID/Info : Picture based subtitle format used on BDs/HD-DVDs
Duration : 2 h 14 min
Bit rate : 67.0 kb/s
Count of elements : 4150
Stream size : 64.7 MB (1%)
Title : Commentary with Cast and Crew
Language : English
Default : No
Forced : No

Text #6
ID : 8
Format : PGS
Muxing mode : zlib
Codec ID : S_HDMV/PGS
Codec ID/Info : Picture based subtitle format used on BDs/HD-DVDs
Duration : 2 h 10 min
Bit rate : 26.0 kb/s
Count of elements : 2254
Stream size : 24.2 MB (0%)
Title : Italian
Language : Italian
Default : No
Forced : No

Text #7
ID : 9
Format : PGS
Muxing mode : zlib
Codec ID : S_HDMV/PGS
Codec ID/Info : Picture based subtitle format used on BDs/HD-DVDs
Duration : 2 h 19 min
Bit rate : 66.0 kb/s
Count of elements : 4762
Stream size : 65.8 MB (1%)
Title : Commentary with George Lucas, Rick McCallum, Rob Coleman, John Knoll, and Roger Guyett
Language : Italian
Default : No
Forced : No

Text #8
ID : 10
Format : PGS
Muxing mode : zlib
Codec ID : S_HDMV/PGS
Codec ID/Info : Picture based subtitle format used on BDs/HD-DVDs
Duration : 2 h 14 min
Bit rate : 56.1 kb/s
Count of elements : 3730
Stream size : 54.1 MB (1%)
Title : Commentary with Cast and Crew
Language : Italian
Default : No
Forced : No

Text #9
ID : 11
Format : PGS
Muxing mode : zlib
Codec ID : S_HDMV/PGS
Codec ID/Info : Picture based subtitle format used on BDs/HD-DVDs
Duration : 2 h 10 min
Bit rate : 31.7 kb/s
Count of elements : 2510
Stream size : 29.6 MB (0%)
Title : German
Language : German
Default : No
Forced : No

Text #10
ID : 12
Format : PGS
Muxing mode : zlib
Codec ID : S_HDMV/PGS
Codec ID/Info : Picture based subtitle format used on BDs/HD-DVDs
Duration : 2 h 19 min
Bit rate : 82.7 kb/s
Count of elements : 4770
Stream size : 82.6 MB (1%)
Title : Commentary with George Lucas, Rick McCallum, Rob Coleman, John Knoll, and Roger Guyett
Language : German
Default : No
Forced : No

Text #11
ID : 13
Format : PGS
Muxing mode : zlib
Codec ID : S_HDMV/PGS
Codec ID/Info : Picture based subtitle format used on BDs/HD-DVDs
Duration : 2 h 14 min
Bit rate : 71.0 kb/s
Count of elements : 4656
Stream size : 68.5 MB (1%)
Title : Commentary with Cast and Crew
Language : German
Default : No
Forced : No

Text #12
ID : 14
Format : PGS
Muxing mode : zlib
Codec ID : S_HDMV/PGS
Codec ID/Info : Picture based subtitle format used on BDs/HD-DVDs
Duration : 2 h 10 min
Bit rate : 23.0 kb/s
Count of elements : 2146
Stream size : 21.4 MB (0%)
Title : Swedish
Language : Swedish
Default : No
Forced : No

Text #13
ID : 15
Format : PGS
Muxing mode : zlib
Codec ID : S_HDMV/PGS
Codec ID/Info : Picture based subtitle format used on BDs/HD-DVDs
Duration : 2 h 10 min
Bit rate : 22.9 kb/s
Count of elements : 2248
Stream size : 21.3 MB (0%)
Title : Norwegian
Language : Norwegian
Default : No
Forced : No

Text #14
ID : 16
Format : PGS
Muxing mode : zlib
Codec ID : S_HDMV/PGS
Codec ID/Info : Picture based subtitle format used on BDs/HD-DVDs
Duration : 2 h 10 min
Bit rate : 24.1 kb/s
Count of elements : 2218
Stream size : 22.5 MB (0%)
Title : Danish
Language : Danish
Default : No
Forced : No

Text #15
ID : 17
Format : PGS
Muxing mode : zlib
Codec ID : S_HDMV/PGS
Codec ID/Info : Picture based subtitle format used on BDs/HD-DVDs
Duration : 2 h 10 min
Bit rate : 20.9 kb/s
Count of elements : 2194
Stream size : 19.5 MB (0%)
Title : Finnish
Language : Finnish
Default : No
Forced : No

Menu
00:00:00.000 : en:Chapter 01
00:00:24.191 : en:Chapter 02
00:01:50.736 : en:Chapter 03
00:08:28.800 : en:Chapter 04
00:11:24.017 : en:Chapter 05
00:18:34.405 : en:Chapter 06
00:23:41.128 : en:Chapter 07
00:27:38.365 : en:Chapter 08
00:29:13.627 : en:Chapter 09
00:33:19.581 : en:Chapter 10
00:35:46.102 : en:Chapter 11
00:36:48.665 : en:Chapter 12
00:38:22.133 : en:Chapter 13
00:40:18.124 : en:Chapter 14
00:41:19.268 : en:Chapter 15
00:42:41.726 : en:Chapter 16
00:48:02.254 : en:Chapter 17
00:50:21.185 : en:Chapter 18
00:52:25.601 : en:Chapter 19
00:53:58.694 : en:Chapter 20
00:56:27.134 : en:Chapter 21
01:00:56.945 : en:Chapter 22
01:01:57.213 : en:Chapter 23
01:05:26.714 : en:Chapter 24
01:07:41.266 : en:Chapter 25
01:09:07.643 : en:Chapter 26
01:10:53.666 : en:Chapter 27
01:15:19.890 : en:Chapter 28
01:19:15.918 : en:Chapter 29
01:20:38.125 : en:Chapter 30
01:24:21.265 : en:Chapter 31
01:27:57.189 : en:Chapter 32
01:29:58.059 : en:Chapter 33
01:33:41.074 : en:Chapter 34
01:36:40.128 : en:Chapter 35
01:38:36.202 : en:Chapter 36
01:41:25.037 : en:Chapter 37
01:42:57.671 : en:Chapter 38
01:48:19.451 : en:Chapter 39
01:51:00.112 : en:Chapter 40
01:52:44.675 : en:Chapter 41
01:54:23.523 : en:Chapter 42
01:56:55.592 : en:Chapter 43
02:02:21.543 : en:Chapter 44
02:03:33.531 : en:Chapter 45
02:05:20.304 : en:Chapter 46
02:07:37.775 : en:Chapter 47
02:08:57.730 : en:Chapter 48
02:12:05.626 : en:Chapter 49
02:13:48.020 : en:Chapter 50


General
Star.Wars.Episode.III.Revenge.of.the.Sith.2005.INTERNAL.REMASTERED.1080p.BluRay.X264-AMIABLE.mkv
Format : Matroska
Format version : Version 4 / Version 2
File size : 23.0 GB
Duration : 2 h 20 min
Overall bit rate : 23.5 Mb/s
Writing application : mkvmerge v44.0.0 ('Domino') 64-bit
Writing library : libebml v1.3.10 + libmatroska v1.5.2

Video
ID : 1
Format : AVC
Format/Info : Advanced Video Codec
Format profile : High@L4.1
Format settings, CABAC : Yes
Format settings, ReFrames : 5 frames
Codec ID : V_MPEG4/ISO/AVC
Duration : 2 h 20 min
Bit rate : 18.7 Mb/s
Width : 1920 pixels
Height : 804 pixels
Display aspect ratio : 2.40:1
Frame rate mode : Constant
Frame rate : 23.976 (24000/1001) FPS
Color space : YUV
Chroma subsampling : 4:2:0
Bit depth : 8 bits
Scan type : Progressive
Bits/(Pixel*Frame) : 0.506
Stream size : 18.3 GB (80%)
Writing library : x264 core 159 r2991 1771b55
Encoding settings : cabac=1 / ref=5 / deblock=1:-3:-3 / analyse=0x3:0x133 / me=umh / subme=10 / psy=1 / psy_rd=1.05:0.00 / mixed_ref=1 / me_range=48 / chroma_me=1 / trellis=2 / 8x8dct=1 / cqm=0 / deadzone=21,11 / fast_pskip=0 / chroma_qp_offset=-2 / threads=25 / lookahead_threads=6 / sliced_threads=0 / nr=0 / decimate=0 / interlaced=0 / bluray_compat=0 / constrained_intra=0 / bframes=10 / b_pyramid=2 / b_adapt=2 / b_bias=0 / direct=3 / weightb=1 / open_gop=0 / weightp=2 / keyint=240 / keyint_min=24 / scenecut=40 / intra_refresh=0 / rc=crf / mbtree=0 / crf=17.1 / qcomp=0.60 / qpmin=0 / qpmax=69 / qpstep=4 / ip_ratio=1.30 / pb_ratio=1.20 / aq=3:0.70
Default : Yes
Forced : No
Color range : Limited
Matrix coefficients : BT.709

Audio #1
ID : 2
Format : DTS
Format/Info : Digital Theater Systems
Format profile : MA / Core
Mode : 16
Format settings, Endianness : Big
Codec ID : A_DTS
Duration : 2 h 20 min
Bit rate mode : Variable / Constant
Bit rate : 4325 kb/s / 1509 kb/s
Channel(s) : 8 channels / 6 channels
Channel positions : Front: L C R, Side: L R, Back: L R, LFE / Front: L C R, Side: L R, LFE
Sampling rate : 48.0 kHz
Frame rate : 93.750 FPS (512 spf)
Bit depth : 24 bits
Compression mode : Lossless / Lossy
Stream size : 4.23 GB (18%)
Language : English
Default : Yes
Forced : No

Audio #2
ID : 18
Format : AAC
Format/Info : Advanced Audio Codec
Format profile : LC
Codec ID : A_AAC
Duration : 2 h 20 min
Bit rate : 129 kb/s
Channel(s) : 2 channels
Channel positions : Front: L R
Sampling rate : 48.0 kHz
Frame rate : 46.875 FPS (1024 spf)
Compression mode : Lossy
Delay relative to video : 9 ms
Stream size : 130 MB (1%)
Title : Commentary with George Lucas, Rick McCallum, Rob Coleman, John Knoll, and Roger Guyett
Language : English
Default : No
Forced : No

Audio #3
ID : 19
Format : AAC
Format/Info : Advanced Audio Codec
Format profile : LC
Codec ID : A_AAC
Duration : 2 h 20 min
Bit rate : 121 kb/s
Channel(s) : 2 channels
Channel positions : Front: L R
Sampling rate : 48.0 kHz
Frame rate : 46.875 FPS (1024 spf)
Compression mode : Lossy
Delay relative to video : 9 ms
Stream size : 121 MB (1%)
Title : Commentary with Cast and Crew
Language : English
Default : No
Forced : No

Text #1
ID : 3
Format : UTF-8
Codec ID : S_TEXT/UTF8
Codec ID/Info : UTF-8 Plain Text
Duration : 2 h 7 min
Bit rate : 40 b/s
Count of elements : 1192
Stream size : 38.2 KiB (0%)
Title : Stripped SRT
Language : English
Default : No
Forced : No

Text #2
ID : 4
Format : UTF-8
Codec ID : S_TEXT/UTF8
Codec ID/Info : UTF-8 Plain Text
Duration : 2 h 12 min
Bit rate : 45 b/s
Count of elements : 1487
Stream size : 43.7 KiB (0%)
Title : SDH SRT
Language : English
Default : No
Forced : No

Text #3
ID : 5
Format : PGS
Muxing mode : zlib
Codec ID : S_HDMV/PGS
Codec ID/Info : Picture based subtitle format used on BDs/HD-DVDs
Duration : 2 h 12 min
Bit rate : 29.8 kb/s
Count of elements : 2974
Stream size : 28.2 MB (0%)
Title : English SDH
Language : English
Default : No
Forced : No

Text #4
ID : 6
Format : PGS
Muxing mode : zlib
Codec ID : S_HDMV/PGS
Codec ID/Info : Picture based subtitle format used on BDs/HD-DVDs
Duration : 2 h 19 min
Bit rate : 81.5 kb/s
Count of elements : 5172
Stream size : 81.4 MB (0%)
Title : Commentary with George Lucas, Rick McCallum, Rob Coleman, John Knoll, and Roger Guyett
Language : English
Default : No
Forced : No

Text #5
ID : 7
Format : PGS
Muxing mode : zlib
Codec ID : S_HDMV/PGS
Codec ID/Info : Picture based subtitle format used on BDs/HD-DVDs
Duration : 2 h 14 min
Bit rate : 67.0 kb/s
Count of elements : 4150
Stream size : 64.7 MB (0%)
Title : Commentary with Cast and Crew
Language : English
Default : No
Forced : No

Text #6
ID : 8
Format : PGS
Muxing mode : zlib
Codec ID : S_HDMV/PGS
Codec ID/Info : Picture based subtitle format used on BDs/HD-DVDs
Duration : 2 h 10 min
Bit rate : 26.0 kb/s
Count of elements : 2254
Stream size : 24.2 MB (0%)
Title : Italian
Language : Italian
Default : No
Forced : No

Text #7
ID : 9
Format : PGS
Muxing mode : zlib
Codec ID : S_HDMV/PGS
Codec ID/Info : Picture based subtitle format used on BDs/HD-DVDs
Duration : 2 h 19 min
Bit rate : 66.0 kb/s
Count of elements : 4762
Stream size : 65.8 MB (0%)
Title : Commentary with George Lucas, Rick McCallum, Rob Coleman, John Knoll, and Roger Guyett
Language : Italian
Default : No
Forced : No

Text #8
ID : 10
Format : PGS
Muxing mode : zlib
Codec ID : S_HDMV/PGS
Codec ID/Info : Picture based subtitle format used on BDs/HD-DVDs
Duration : 2 h 14 min
Bit rate : 56.1 kb/s
Count of elements : 3730
Stream size : 54.1 MB (0%)
Title : Commentary with Cast and Crew
Language : Italian
Default : No
Forced : No

Text #9
ID : 11
Format : PGS
Muxing mode : zlib
Codec ID : S_HDMV/PGS
Codec ID/Info : Picture based subtitle format used on BDs/HD-DVDs
Duration : 2 h 10 min
Bit rate : 31.7 kb/s
Count of elements : 2510
Stream size : 29.6 MB (0%)
Title : German
Language : German
Default : No
Forced : No

Text #10
ID : 12
Format : PGS
Muxing mode : zlib
Codec ID : S_HDMV/PGS
Codec ID/Info : Picture based subtitle format used on BDs/HD-DVDs
Duration : 2 h 19 min
Bit rate : 82.7 kb/s
Count of elements : 4770
Stream size : 82.6 MB (0%)
Title : Commentary with George Lucas, Rick McCallum, Rob Coleman, John Knoll, and Roger Guyett
Language : German
Default : No
Forced : No

Text #11
ID : 13
Format : PGS
Muxing mode : zlib
Codec ID : S_HDMV/PGS
Codec ID/Info : Picture based subtitle format used on BDs/HD-DVDs
Duration : 2 h 14 min
Bit rate : 71.0 kb/s
Count of elements : 4656
Stream size : 68.5 MB (0%)
Title : Commentary with Cast and Crew
Language : German
Default : No
Forced : No

Text #12
ID : 14
Format : PGS
Muxing mode : zlib
Codec ID : S_HDMV/PGS
Codec ID/Info : Picture based subtitle format used on BDs/HD-DVDs
Duration : 2 h 10 min
Bit rate : 23.0 kb/s
Count of elements : 2146
Stream size : 21.4 MB (0%)
Title : Swedish
Language : Swedish
Default : No
Forced : No

Text #13
ID : 15
Format : PGS
Muxing mode : zlib
Codec ID : S_HDMV/PGS
Codec ID/Info : Picture based subtitle format used on BDs/HD-DVDs
Duration : 2 h 10 min
Bit rate : 22.9 kb/s
Count of elements : 2248
Stream size : 21.3 MB (0%)
Title : Norwegian
Language : Norwegian
Default : No
Forced : No

Text #14
ID : 16
Format : PGS
Muxing mode : zlib
Codec ID : S_HDMV/PGS
Codec ID/Info : Picture based subtitle format used on BDs/HD-DVDs
Duration : 2 h 10 min
Bit rate : 24.1 kb/s
Count of elements : 2218
Stream size : 22.5 MB (0%)
Title : Danish
Language : Danish
Default : No
Forced : No

Text #15
ID : 17
Format : PGS
Muxing mode : zlib
Codec ID : S_HDMV/PGS
Codec ID/Info : Picture based subtitle format used on BDs/HD-DVDs
Duration : 2 h 10 min
Bit rate : 20.9 kb/s
Count of elements : 2194
Stream size : 19.5 MB (0%)
Title : Finnish
Language : Finnish
Default : No
Forced : No

Menu
00:00:00.000 : en:Chapter 01
00:00:24.191 : en:Chapter 02
00:01:50.736 : en:Chapter 03
00:08:28.800 : en:Chapter 04
00:11:24.017 : en:Chapter 05
00:18:34.405 : en:Chapter 06
00:23:41.128 : en:Chapter 07
00:27:38.365 : en:Chapter 08
00:29:13.627 : en:Chapter 09
00:33:19.581 : en:Chapter 10
00:35:46.102 : en:Chapter 11
00:36:48.665 : en:Chapter 12
00:38:22.133 : en:Chapter 13
00:40:18.124 : en:Chapter 14
00:41:19.268 : en:Chapter 15
00:42:41.726 : en:Chapter 16
00:48:02.254 : en:Chapter 17
00:50:21.185 : en:Chapter 18
00:52:25.601 : en:Chapter 19
00:53:58.694 : en:Chapter 20
00:56:27.134 : en:Chapter 21
01:00:56.945 : en:Chapter 22
01:01:57.213 : en:Chapter 23
01:05:26.714 : en:Chapter 24
01:07:41.266 : en:Chapter 25
01:09:07.643 : en:Chapter 26
01:10:53.666 : en:Chapter 27
01:15:19.890 : en:Chapter 28
01:19:15.918 : en:Chapter 29
01:20:38.125 : en:Chapter 30
01:24:21.265 : en:Chapter 31
01:27:57.189 : en:Chapter 32
01:29:58.059 : en:Chapter 33
01:33:41.074 : en:Chapter 34
01:36:40.128 : en:Chapter 35
01:38:36.202 : en:Chapter 36
01:41:25.037 : en:Chapter 37
01:42:57.671 : en:Chapter 38
01:48:19.451 : en:Chapter 39
01:51:00.112 : en:Chapter 40
01:52:44.675 : en:Chapter 41
01:54:23.523 : en:Chapter 42
01:56:55.592 : en:Chapter 43
02:02:21.543 : en:Chapter 44
02:03:33.531 : en:Chapter 45
02:05:20.304 : en:Chapter 46
02:07:37.775 : en:Chapter 47
02:08:57.730 : en:Chapter 48
02:12:05.626 : en:Chapter 49
02:13:48.020 : en:Chapter 50



BRRip 720p Screenshots

Star Wars: Episode III - Revenge of the Sith (2005) [Remastered]

Star Wars: Episode III - Revenge of the Sith (2005) [Remastered]

Star Wars: Episode III - Revenge of the Sith (2005) [Remastered]


BRRip 1080p Screenshots

Star Wars: Episode III - Revenge of the Sith (2005) [Remastered]

Star Wars: Episode III - Revenge of the Sith (2005) [Remastered]

Star Wars: Episode III - Revenge of the Sith (2005) [Remastered]


BDRip 720p Screenshots

Star Wars: Episode III - Revenge of the Sith (2005) [Remastered]

Star Wars: Episode III - Revenge of the Sith (2005) [Remastered]

Star Wars: Episode III - Revenge of the Sith (2005) [Remastered]


BDRip 1080p Screenshots

Star Wars: Episode III - Revenge of the Sith (2005) [Remastered]

Star Wars: Episode III - Revenge of the Sith (2005) [Remastered]

Star Wars: Episode III - Revenge of the Sith (2005) [Remastered]


Come Visit My Blog (•‿•)