Tags
Language
Tags

Star Wars: Episode V - The Empire Strikes Back (1980) [Remastered]

Posted By: Without
1080p (FullHD) / BDRip IMDb
Star Wars: Episode V - The Empire Strikes Back (1980) [Remastered]

Star Wars: Episode V - The Empire Strikes Back (1980)
BRRip 720p | MP4 | 2 h 7 min | 1.54 GB | 1280x536 | AVC@1500 kb/s | English AAC@224 kb/s, 2 ch
BRRip 1080p | MP4 | 2 h 7 min | 2.43 GB | 1920x804 | AVC@2500 kb/s | English AAC@224 kb/s, 2 ch
BDRip 720p | MKV | 2 h 7 min | 3.88 GB | 1280x536 | AVC@3294 kb/s
English AC3@640 kb/s, 6 ch | English AAC@127 kb/s, 2 ch (Commentary)
BDRip 1080p | MKV | 2 h 7 min | 13.1 GB | 1920x804 | AVC@9760 kb/s
English DTS-HD MA@4517 kb/s, 8 ch | English AAC@127 kb/s, 2 ch (Commentary)
Subs: English, Italiano, German, Svenska, Norsk, Dansk, Suomi
Genre: Action | Adventure | Fantasy | Sci-Fi

After the Rebels are brutally overpowered by the Empire on the ice planet Hoth, Luke Skywalker begins Jedi training with Yoda, while his friends are pursued by Darth Vader and a bounty hunter named Boba Fett all over the galaxy.

IMDB - Top Rated Movies #27 | 17 nominations.


General
Star.Wars.Episode.V.The.Empire.Strikes.Back.1980.REMASTERED.720p.BluRay.H264.AAC.mp4
Format : MPEG-4
Format profile : Base Media
Codec ID : isom (isom/iso2/avc1/mp41)
File size : 1.54 GB
Duration : 2 h 7 min
Overall bit rate : 1731 kb/s
Encoded date : UTC 2020-05-03 09:50:35
Tagged date : UTC 2020-05-03 09:50:35
Writing application : Lavf58.20.100

Video
ID : 1
Format : AVC
Format/Info : Advanced Video Codec
Format profile : High@L4.1
Format settings, CABAC : Yes
Format settings, ReFrames : 4 frames
Codec ID : avc1
Codec ID/Info : Advanced Video Coding
Duration : 2 h 7 min
Bit rate : 1500 kb/s
Width : 1280 pixels
Height : 536 pixels
Display aspect ratio : 2.40:1
Frame rate mode : Constant
Frame rate : 23.976 (23976/1000) FPS
Color space : YUV
Chroma subsampling : 4:2:0
Bit depth : 8 bits
Scan type : Progressive
Bits/(Pixel*Frame) : 0.091
Stream size : 1.33 GB (87%)
Writing library : x264 core 152 r2851M ba24899
Encoding settings : cabac=1 / ref=4 / deblock=1:-1:-1 / analyse=0x3:0x113 / me=umh / subme=9 / psy=1 / psy_rd=1.00:0.15 / mixed_ref=1 / me_range=24 / chroma_me=1 / trellis=2 / 8x8dct=1 / cqm=0 / deadzone=21,11 / fast_pskip=1 / chroma_qp_offset=-3 / threads=16 / lookahead_threads=4 / sliced_threads=0 / nr=0 / decimate=1 / interlaced=0 / bluray_compat=0 / constrained_intra=0 / bframes=3 / b_pyramid=2 / b_adapt=2 / b_bias=0 / direct=3 / weightb=1 / open_gop=0 / weightp=2 / keyint=250 / keyint_min=25 / scenecut=40 / intra_refresh=0 / rc_lookahead=50 / rc=2pass / mbtree=1 / bitrate=1500 / ratetol=1.0 / qcomp=0.60 / qpmin=0 / qpmax=69 / qpstep=4 / cplxblur=20.0 / qblur=0.5 / vbv_maxrate=31250 / vbv_bufsize=31250 / nal_hrd=none / filler=0 / ip_ratio=1.40 / aq=3:1.00
Encoded date : UTC 2020-05-03 09:50:35
Tagged date : UTC 2020-05-03 09:50:35

Audio
ID : 2
Format : AAC
Format/Info : Advanced Audio Codec
Format profile : LC
Codec ID : 40
Duration : 2 h 7 min
Bit rate mode : Constant
Bit rate : 224 kb/s
Channel(s) : 2 channels
Channel(s)_Original : 6 channels
Channel positions : Front: L C R, Side: L R, LFE
Sampling rate : 48.0 kHz
Frame rate : 46.875 FPS (1024 spf)
Compression mode : Lossy
Stream size : 204 MB (13%)
Language : English
Default : Yes
Alternate group : 1
Encoded date : UTC 2020-05-03 09:50:35
Tagged date : UTC 2020-05-03 09:50:35


General
Star.Wars.Episode.V.The.Empire.Strikes.Back.1980.REMASTERED.1080p.BluRay.H264.AAC.mp4
Format : MPEG-4
Format profile : Base Media
Codec ID : isom (isom/iso2/avc1/mp41)
File size : 2.43 GB
Duration : 2 h 7 min
Overall bit rate : 2730 kb/s
Encoded date : UTC 2020-05-03 11:20:20
Tagged date : UTC 2020-05-03 11:20:20
Writing application : Lavf58.20.100

Video
ID : 1
Format : AVC
Format/Info : Advanced Video Codec
Format profile : High@L4.1
Format settings, CABAC : Yes
Format settings, ReFrames : 4 frames
Codec ID : avc1
Codec ID/Info : Advanced Video Coding
Duration : 2 h 7 min
Bit rate : 2500 kb/s
Width : 1920 pixels
Height : 804 pixels
Display aspect ratio : 2.40:1
Frame rate mode : Constant
Frame rate : 23.976 (23976/1000) FPS
Color space : YUV
Chroma subsampling : 4:2:0
Bit depth : 8 bits
Scan type : Progressive
Bits/(Pixel*Frame) : 0.068
Stream size : 2.22 GB (92%)
Writing library : x264 core 152 r2851M ba24899
Encoding settings : cabac=1 / ref=4 / deblock=1:-1:-1 / analyse=0x3:0x113 / me=umh / subme=9 / psy=1 / psy_rd=1.00:0.15 / mixed_ref=1 / me_range=24 / chroma_me=1 / trellis=2 / 8x8dct=1 / cqm=0 / deadzone=21,11 / fast_pskip=1 / chroma_qp_offset=-3 / threads=16 / lookahead_threads=4 / sliced_threads=0 / nr=0 / decimate=1 / interlaced=0 / bluray_compat=0 / constrained_intra=0 / bframes=3 / b_pyramid=2 / b_adapt=2 / b_bias=0 / direct=3 / weightb=1 / open_gop=0 / weightp=2 / keyint=250 / keyint_min=25 / scenecut=40 / intra_refresh=0 / rc_lookahead=50 / rc=2pass / mbtree=1 / bitrate=2500 / ratetol=1.0 / qcomp=0.60 / qpmin=0 / qpmax=69 / qpstep=4 / cplxblur=20.0 / qblur=0.5 / vbv_maxrate=31250 / vbv_bufsize=31250 / nal_hrd=none / filler=0 / ip_ratio=1.40 / aq=3:1.00
Encoded date : UTC 2020-05-03 11:20:20
Tagged date : UTC 2020-05-03 11:20:20

Audio
ID : 2
Format : AAC
Format/Info : Advanced Audio Codec
Format profile : LC
Codec ID : 40
Duration : 2 h 7 min
Bit rate mode : Constant
Bit rate : 224 kb/s
Channel(s) : 2 channels
Channel(s)_Original : 6 channels
Channel positions : Front: L C R, Side: L R, LFE
Sampling rate : 48.0 kHz
Frame rate : 46.875 FPS (1024 spf)
Compression mode : Lossy
Stream size : 204 MB (8%)
Language : English
Default : Yes
Alternate group : 1
Encoded date : UTC 2020-05-03 11:20:20
Tagged date : UTC 2020-05-03 11:20:20


General
Star.Wars.Episode.V.The.Empire.Strikes.Back.1980.REMASTERED.720p.BluRay.X264-AMIABLE.mkv
Format : Matroska
Format version : Version 4 / Version 2
File size : 3.88 GB
Duration : 2 h 7 min
Overall bit rate : 4359 kb/s
Writing application : mkvmerge v44.0.0 ('Domino') 64-bit
Writing library : libebml v1.3.10 + libmatroska v1.5.2

Video
ID : 1
Format : AVC
Format/Info : Advanced Video Codec
Format profile : High@L4.1
Format settings, CABAC : Yes
Format settings, ReFrames : 12 frames
Codec ID : V_MPEG4/ISO/AVC
Duration : 2 h 7 min
Bit rate : 3294 kb/s
Width : 1280 pixels
Height : 536 pixels
Display aspect ratio : 2.40:1
Frame rate mode : Constant
Frame rate : 23.976 (24000/1001) FPS
Color space : YUV
Chroma subsampling : 4:2:0
Bit depth : 8 bits
Scan type : Progressive
Bits/(Pixel*Frame) : 0.200
Stream size : 2.93 GB (76%)
Writing library : x264 core 159 r2991 1771b55
Encoding settings : cabac=1 / ref=12 / deblock=1:-3:-3 / analyse=0x3:0x133 / me=umh / subme=10 / psy=1 / psy_rd=1.05:0.00 / mixed_ref=1 / me_range=32 / chroma_me=1 / trellis=2 / 8x8dct=1 / cqm=0 / deadzone=21,11 / fast_pskip=0 / chroma_qp_offset=-2 / threads=17 / lookahead_threads=4 / sliced_threads=0 / nr=0 / decimate=0 / interlaced=0 / bluray_compat=0 / constrained_intra=0 / bframes=10 / b_pyramid=2 / b_adapt=2 / b_bias=0 / direct=3 / weightb=1 / open_gop=0 / weightp=2 / keyint=240 / keyint_min=24 / scenecut=40 / intra_refresh=0 / rc=crf / mbtree=0 / crf=17.0 / qcomp=0.65 / qpmin=0 / qpmax=69 / qpstep=4 / ip_ratio=1.30 / pb_ratio=1.20 / aq=3:0.70
Default : Yes
Forced : No
Color range : Limited
Matrix coefficients : BT.709

Audio #1
ID : 2
Format : AC-3
Format/Info : Audio Coding 3
Mode extension : CM (complete main)
Format settings, Endianness : Big
Codec ID : A_AC3
Duration : 2 h 7 min
Bit rate mode : Constant
Bit rate : 640 kb/s
Channel(s) : 6 channels
Channel positions : Front: L C R, Side: L R, LFE
Sampling rate : 48.0 kHz
Frame rate : 31.250 FPS (1536 spf)
Bit depth : 16 bits
Compression mode : Lossy
Stream size : 583 MB (15%)
Language : English
Default : Yes
Forced : No

Audio #2
ID : 18
Format : AAC
Format/Info : Advanced Audio Codec
Format profile : LC
Codec ID : A_AAC
Duration : 2 h 7 min
Bit rate : 127 kb/s
Channel(s) : 2 channels
Channel positions : Front: L R
Sampling rate : 48.0 kHz
Frame rate : 46.875 FPS (1024 spf)
Compression mode : Lossy
Delay relative to video : 9 ms
Stream size : 116 MB (3%)
Title : Commentary with George Lucas, Irvin Kershner, Carrie Fisher, Ben Burtt, and Dennis Muren
Language : English
Default : No
Forced : No

Audio #3
ID : 19
Format : AAC
Format/Info : Advanced Audio Codec
Format profile : LC
Codec ID : A_AAC
Duration : 2 h 7 min
Bit rate : 121 kb/s
Channel(s) : 2 channels
Channel positions : Front: L R
Sampling rate : 48.0 kHz
Frame rate : 46.875 FPS (1024 spf)
Compression mode : Lossy
Delay relative to video : 9 ms
Stream size : 111 MB (3%)
Title : Commentary with Cast and Crew
Language : English
Default : No
Forced : No

Text #1
ID : 3
Format : UTF-8
Codec ID : S_TEXT/UTF8
Codec ID/Info : UTF-8 Plain Text
Duration : 1 h 57 min
Bit rate : 47 b/s
Count of elements : 1444
Stream size : 40.5 KiB (0%)
Title : Stripped SRT
Language : English
Default : No
Forced : No

Text #2
ID : 4
Format : UTF-8
Codec ID : S_TEXT/UTF8
Codec ID/Info : UTF-8 Plain Text
Duration : 2 h 1 min
Bit rate : 49 b/s
Count of elements : 1611
Stream size : 43.8 KiB (0%)
Title : SDH SRT
Language : English
Default : No
Forced : No

Text #3
ID : 5
Format : PGS
Muxing mode : zlib
Codec ID : S_HDMV/PGS
Codec ID/Info : Picture based subtitle format used on BDs/HD-DVDs
Duration : 2 h 1 min
Bit rate : 32.1 kb/s
Count of elements : 3223
Stream size : 27.9 MB (1%)
Title : English SDH
Language : English
Default : No
Forced : No

Text #4
ID : 6
Format : PGS
Muxing mode : zlib
Codec ID : S_HDMV/PGS
Codec ID/Info : Picture based subtitle format used on BDs/HD-DVDs
Duration : 2 h 5 min
Bit rate : 70.9 kb/s
Count of elements : 4308
Stream size : 63.8 MB (2%)
Title : Commentary with George Lucas, Irvin Kershner, Carrie Fisher, Ben Burtt, and Dennis Muren
Language : English
Default : No
Forced : No

Text #5
ID : 7
Format : PGS
Muxing mode : zlib
Codec ID : S_HDMV/PGS
Codec ID/Info : Picture based subtitle format used on BDs/HD-DVDs
Duration : 2 h 3 min
Bit rate : 68.3 kb/s
Count of elements : 4025
Stream size : 60.5 MB (2%)
Title : Commentary with Cast and Crew
Language : English
Default : No
Forced : No

Text #6
ID : 8
Format : PGS
Muxing mode : zlib
Codec ID : S_HDMV/PGS
Codec ID/Info : Picture based subtitle format used on BDs/HD-DVDs
Duration : 2 h 0 min
Bit rate : 27.7 kb/s
Count of elements : 2292
Stream size : 23.9 MB (1%)
Title : Italian
Language : Italian
Default : No
Forced : No

Text #7
ID : 9
Format : PGS
Muxing mode : zlib
Codec ID : S_HDMV/PGS
Codec ID/Info : Picture based subtitle format used on BDs/HD-DVDs
Duration : 2 h 5 min
Bit rate : 64.1 kb/s
Count of elements : 4288
Stream size : 57.7 MB (1%)
Title : Commentary with George Lucas, Irvin Kershner, Carrie Fisher, Ben Burtt, and Dennis Muren
Language : Italian
Default : No
Forced : No

Text #8
ID : 10
Format : PGS
Muxing mode : zlib
Codec ID : S_HDMV/PGS
Codec ID/Info : Picture based subtitle format used on BDs/HD-DVDs
Duration : 2 h 3 min
Bit rate : 62.0 kb/s
Count of elements : 3938
Stream size : 54.9 MB (1%)
Title : Commentary with Cast and Crew
Language : Italian
Default : No
Forced : No

Text #9
ID : 11
Format : PGS
Muxing mode : zlib
Codec ID : S_HDMV/PGS
Codec ID/Info : Picture based subtitle format used on BDs/HD-DVDs
Duration : 2 h 0 min
Bit rate : 34.1 kb/s
Count of elements : 2314
Stream size : 29.3 MB (1%)
Title : German
Language : German
Default : No
Forced : No

Text #10
ID : 12
Format : PGS
Muxing mode : zlib
Codec ID : S_HDMV/PGS
Codec ID/Info : Picture based subtitle format used on BDs/HD-DVDs
Duration : 2 h 5 min
Bit rate : 73.9 kb/s
Count of elements : 4158
Stream size : 66.5 MB (2%)
Title : Commentary with George Lucas, Irvin Kershner, Carrie Fisher, Ben Burtt, and Dennis Muren
Language : German
Default : No
Forced : No

Text #11
ID : 13
Format : PGS
Muxing mode : zlib
Codec ID : S_HDMV/PGS
Codec ID/Info : Picture based subtitle format used on BDs/HD-DVDs
Duration : 2 h 3 min
Bit rate : 71.2 kb/s
Count of elements : 4246
Stream size : 63.0 MB (2%)
Title : Commentary with Cast and Crew
Language : German
Default : No
Forced : No

Text #12
ID : 14
Format : PGS
Muxing mode : zlib
Codec ID : S_HDMV/PGS
Codec ID/Info : Picture based subtitle format used on BDs/HD-DVDs
Duration : 2 h 0 min
Bit rate : 21.4 kb/s
Count of elements : 1774
Stream size : 18.4 MB (0%)
Title : Swedish
Language : Swedish
Default : No
Forced : No

Text #13
ID : 15
Format : PGS
Muxing mode : zlib
Codec ID : S_HDMV/PGS
Codec ID/Info : Picture based subtitle format used on BDs/HD-DVDs
Duration : 2 h 0 min
Bit rate : 18.5 kb/s
Count of elements : 1694
Stream size : 15.9 MB (0%)
Title : Norwegian
Language : Norwegian
Default : No
Forced : No

Text #14
ID : 16
Format : PGS
Muxing mode : zlib
Codec ID : S_HDMV/PGS
Codec ID/Info : Picture based subtitle format used on BDs/HD-DVDs
Duration : 2 h 0 min
Bit rate : 21.2 kb/s
Count of elements : 1700
Stream size : 18.2 MB (0%)
Title : Danish
Language : Danish
Default : No
Forced : No

Text #15
ID : 17
Format : PGS
Muxing mode : zlib
Codec ID : S_HDMV/PGS
Codec ID/Info : Picture based subtitle format used on BDs/HD-DVDs
Duration : 2 h 0 min
Bit rate : 20.3 kb/s
Count of elements : 1660
Stream size : 17.5 MB (0%)
Title : Finnish
Language : Finnish
Default : No
Forced : No

Menu
00:00:00.000 : en:Chapter 01
00:00:21.772 : en:Chapter 02
00:01:55.532 : en:Chapter 03
00:04:16.506 : en:Chapter 04
00:08:19.916 : en:Chapter 05
00:10:16.616 : en:Chapter 06
00:12:58.403 : en:Chapter 07
00:15:14.205 : en:Chapter 08
00:16:30.364 : en:Chapter 09
00:18:20.641 : en:Chapter 10
00:19:46.060 : en:Chapter 11
00:21:23.365 : en:Chapter 12
00:23:58.395 : en:Chapter 13
00:25:50.090 : en:Chapter 14
00:29:30.018 : en:Chapter 15
00:31:29.888 : en:Chapter 16
00:33:38.350 : en:Chapter 17
00:35:55.820 : en:Chapter 18
00:36:51.918 : en:Chapter 19
00:38:34.229 : en:Chapter 20
00:40:37.393 : en:Chapter 21
00:44:20.741 : en:Chapter 22
00:46:09.058 : en:Chapter 23
00:50:14.053 : en:Chapter 24
00:52:17.301 : en:Chapter 25
00:54:20.924 : en:Chapter 26
00:57:40.957 : en:Chapter 27
01:00:58.613 : en:Chapter 28
01:03:43.445 : en:Chapter 29
01:05:46.776 : en:Chapter 30
01:08:12.839 : en:Chapter 31
01:13:24.900 : en:Chapter 32
01:16:40.554 : en:Chapter 33
01:18:24.783 : en:Chapter 34
01:19:46.532 : en:Chapter 35
01:22:56.597 : en:Chapter 36
01:25:39.217 : en:Chapter 37
01:27:51.933 : en:Chapter 38
01:30:29.341 : en:Chapter 39
01:34:40.466 : en:Chapter 40
01:38:29.570 : en:Chapter 41
01:40:26.812 : en:Chapter 42
01:41:46.767 : en:Chapter 43
01:43:52.101 : en:Chapter 44
01:47:03.208 : en:Chapter 45
01:49:22.139 : en:Chapter 46
01:53:42.357 : en:Chapter 47
01:56:15.510 : en:Chapter 48
01:59:47.263 : en:Chapter 49
02:01:58.895 : en:Chapter 50


General
Star.Wars.Episode.V.The.Empire.Strikes.Back.1980.REMASTERED.1080p.BluRay.X264-AMIABLE.mkv
Format : Matroska
Format version : Version 4 / Version 2
File size : 13.1 GB
Duration : 2 h 7 min
Overall bit rate : 14.7 Mb/s
Writing application : mkvmerge v44.0.0 ('Domino') 64-bit
Writing library : libebml v1.3.10 + libmatroska v1.5.2

Video
ID : 1
Format : AVC
Format/Info : Advanced Video Codec
Format profile : High@L4.1
Format settings, CABAC : Yes
Format settings, ReFrames : 5 frames
Codec ID : V_MPEG4/ISO/AVC
Duration : 2 h 7 min
Bit rate : 9760 kb/s
Width : 1920 pixels
Height : 804 pixels
Display aspect ratio : 2.40:1
Frame rate mode : Constant
Frame rate : 23.976 (24000/1001) FPS
Color space : YUV
Chroma subsampling : 4:2:0
Bit depth : 8 bits
Scan type : Progressive
Bits/(Pixel*Frame) : 0.264
Stream size : 8.68 GB (66%)
Writing library : x264 core 159 r2991 1771b55
Encoding settings : cabac=1 / ref=5 / deblock=1:-3:-3 / analyse=0x3:0x133 / me=umh / subme=10 / psy=1 / psy_rd=1.05:0.00 / mixed_ref=1 / me_range=48 / chroma_me=1 / trellis=2 / 8x8dct=1 / cqm=0 / deadzone=21,11 / fast_pskip=0 / chroma_qp_offset=-2 / threads=25 / lookahead_threads=6 / sliced_threads=0 / nr=0 / decimate=0 / interlaced=0 / bluray_compat=0 / constrained_intra=0 / bframes=10 / b_pyramid=2 / b_adapt=2 / b_bias=0 / direct=3 / weightb=1 / open_gop=0 / weightp=2 / keyint=240 / keyint_min=24 / scenecut=40 / intra_refresh=0 / rc=crf / mbtree=0 / crf=17.0 / qcomp=0.65 / qpmin=0 / qpmax=69 / qpstep=4 / ip_ratio=1.30 / pb_ratio=1.20 / aq=3:0.70
Default : Yes
Forced : No
Color range : Limited
Matrix coefficients : BT.709

Audio #1
ID : 2
Format : DTS
Format/Info : Digital Theater Systems
Format profile : MA / Core
Mode : 16
Format settings, Endianness : Big
Codec ID : A_DTS
Duration : 2 h 7 min
Bit rate mode : Variable / Constant
Bit rate : 4517 kb/s / 1509 kb/s
Channel(s) : 8 channels / 6 channels
Channel positions : Front: L C R, Side: L R, Back: L R, LFE / Front: L C R, Side: L R, LFE
Sampling rate : 48.0 kHz
Frame rate : 93.750 FPS (512 spf)
Bit depth : 24 bits
Compression mode : Lossless / Lossy
Stream size : 4.02 GB (31%)
Language : English
Default : Yes
Forced : No

Audio #2
ID : 18
Format : AAC
Format/Info : Advanced Audio Codec
Format profile : LC
Codec ID : A_AAC
Duration : 2 h 7 min
Bit rate : 127 kb/s
Channel(s) : 2 channels
Channel positions : Front: L R
Sampling rate : 48.0 kHz
Frame rate : 46.875 FPS (1024 spf)
Compression mode : Lossy
Delay relative to video : 9 ms
Stream size : 116 MB (1%)
Title : Commentary with George Lucas, Irvin Kershner, Carrie Fisher, Ben Burtt, and Dennis Muren
Language : English
Default : No
Forced : No

Audio #3
ID : 19
Format : AAC
Format/Info : Advanced Audio Codec
Format profile : LC
Codec ID : A_AAC
Duration : 2 h 7 min
Bit rate : 121 kb/s
Channel(s) : 2 channels
Channel positions : Front: L R
Sampling rate : 48.0 kHz
Frame rate : 46.875 FPS (1024 spf)
Compression mode : Lossy
Delay relative to video : 9 ms
Stream size : 111 MB (1%)
Title : Commentary with Cast and Crew
Language : English
Default : No
Forced : No

Text #1
ID : 3
Format : UTF-8
Codec ID : S_TEXT/UTF8
Codec ID/Info : UTF-8 Plain Text
Duration : 1 h 57 min
Bit rate : 47 b/s
Count of elements : 1444
Stream size : 40.5 KiB (0%)
Title : Stripped SRT
Language : English
Default : No
Forced : No

Text #2
ID : 4
Format : UTF-8
Codec ID : S_TEXT/UTF8
Codec ID/Info : UTF-8 Plain Text
Duration : 2 h 1 min
Bit rate : 49 b/s
Count of elements : 1611
Stream size : 43.8 KiB (0%)
Title : SDH SRT
Language : English
Default : No
Forced : No

Text #3
ID : 5
Format : PGS
Muxing mode : zlib
Codec ID : S_HDMV/PGS
Codec ID/Info : Picture based subtitle format used on BDs/HD-DVDs
Duration : 2 h 1 min
Bit rate : 32.1 kb/s
Count of elements : 3223
Stream size : 27.9 MB (0%)
Title : English SDH
Language : English
Default : No
Forced : No

Text #4
ID : 6
Format : PGS
Muxing mode : zlib
Codec ID : S_HDMV/PGS
Codec ID/Info : Picture based subtitle format used on BDs/HD-DVDs
Duration : 2 h 5 min
Bit rate : 70.9 kb/s
Count of elements : 4308
Stream size : 63.8 MB (0%)
Title : Commentary with George Lucas, Irvin Kershner, Carrie Fisher, Ben Burtt, and Dennis Muren
Language : English
Default : No
Forced : No

Text #5
ID : 7
Format : PGS
Muxing mode : zlib
Codec ID : S_HDMV/PGS
Codec ID/Info : Picture based subtitle format used on BDs/HD-DVDs
Duration : 2 h 3 min
Bit rate : 68.3 kb/s
Count of elements : 4025
Stream size : 60.5 MB (0%)
Title : Commentary with Cast and Crew
Language : English
Default : No
Forced : No

Text #6
ID : 8
Format : PGS
Muxing mode : zlib
Codec ID : S_HDMV/PGS
Codec ID/Info : Picture based subtitle format used on BDs/HD-DVDs
Duration : 2 h 0 min
Bit rate : 27.7 kb/s
Count of elements : 2292
Stream size : 23.9 MB (0%)
Title : Italian
Language : Italian
Default : No
Forced : No

Text #7
ID : 9
Format : PGS
Muxing mode : zlib
Codec ID : S_HDMV/PGS
Codec ID/Info : Picture based subtitle format used on BDs/HD-DVDs
Duration : 2 h 5 min
Bit rate : 64.1 kb/s
Count of elements : 4288
Stream size : 57.7 MB (0%)
Title : Commentary with George Lucas, Irvin Kershner, Carrie Fisher, Ben Burtt, and Dennis Muren
Language : Italian
Default : No
Forced : No

Text #8
ID : 10
Format : PGS
Muxing mode : zlib
Codec ID : S_HDMV/PGS
Codec ID/Info : Picture based subtitle format used on BDs/HD-DVDs
Duration : 2 h 3 min
Bit rate : 62.0 kb/s
Count of elements : 3938
Stream size : 54.9 MB (0%)
Title : Commentary with Cast and Crew
Language : Italian
Default : No
Forced : No

Text #9
ID : 11
Format : PGS
Muxing mode : zlib
Codec ID : S_HDMV/PGS
Codec ID/Info : Picture based subtitle format used on BDs/HD-DVDs
Duration : 2 h 0 min
Bit rate : 34.1 kb/s
Count of elements : 2314
Stream size : 29.3 MB (0%)
Title : German
Language : German
Default : No
Forced : No

Text #10
ID : 12
Format : PGS
Muxing mode : zlib
Codec ID : S_HDMV/PGS
Codec ID/Info : Picture based subtitle format used on BDs/HD-DVDs
Duration : 2 h 5 min
Bit rate : 73.9 kb/s
Count of elements : 4158
Stream size : 66.5 MB (0%)
Title : Commentary with George Lucas, Irvin Kershner, Carrie Fisher, Ben Burtt, and Dennis Muren
Language : German
Default : No
Forced : No

Text #11
ID : 13
Format : PGS
Muxing mode : zlib
Codec ID : S_HDMV/PGS
Codec ID/Info : Picture based subtitle format used on BDs/HD-DVDs
Duration : 2 h 3 min
Bit rate : 71.2 kb/s
Count of elements : 4246
Stream size : 63.0 MB (0%)
Title : Commentary with Cast and Crew
Language : German
Default : No
Forced : No

Text #12
ID : 14
Format : PGS
Muxing mode : zlib
Codec ID : S_HDMV/PGS
Codec ID/Info : Picture based subtitle format used on BDs/HD-DVDs
Duration : 2 h 0 min
Bit rate : 21.4 kb/s
Count of elements : 1774
Stream size : 18.4 MB (0%)
Title : Swedish
Language : Swedish
Default : No
Forced : No

Text #13
ID : 15
Format : PGS
Muxing mode : zlib
Codec ID : S_HDMV/PGS
Codec ID/Info : Picture based subtitle format used on BDs/HD-DVDs
Duration : 2 h 0 min
Bit rate : 18.5 kb/s
Count of elements : 1694
Stream size : 15.9 MB (0%)
Title : Norwegian
Language : Norwegian
Default : No
Forced : No

Text #14
ID : 16
Format : PGS
Muxing mode : zlib
Codec ID : S_HDMV/PGS
Codec ID/Info : Picture based subtitle format used on BDs/HD-DVDs
Duration : 2 h 0 min
Bit rate : 21.2 kb/s
Count of elements : 1700
Stream size : 18.2 MB (0%)
Title : Danish
Language : Danish
Default : No
Forced : No

Text #15
ID : 17
Format : PGS
Muxing mode : zlib
Codec ID : S_HDMV/PGS
Codec ID/Info : Picture based subtitle format used on BDs/HD-DVDs
Duration : 2 h 0 min
Bit rate : 20.3 kb/s
Count of elements : 1660
Stream size : 17.5 MB (0%)
Title : Finnish
Language : Finnish
Default : No
Forced : No

Menu
00:00:00.000 : en:Chapter 01
00:00:21.772 : en:Chapter 02
00:01:55.532 : en:Chapter 03
00:04:16.506 : en:Chapter 04
00:08:19.916 : en:Chapter 05
00:10:16.616 : en:Chapter 06
00:12:58.403 : en:Chapter 07
00:15:14.205 : en:Chapter 08
00:16:30.364 : en:Chapter 09
00:18:20.641 : en:Chapter 10
00:19:46.060 : en:Chapter 11
00:21:23.365 : en:Chapter 12
00:23:58.395 : en:Chapter 13
00:25:50.090 : en:Chapter 14
00:29:30.018 : en:Chapter 15
00:31:29.888 : en:Chapter 16
00:33:38.350 : en:Chapter 17
00:35:55.820 : en:Chapter 18
00:36:51.918 : en:Chapter 19
00:38:34.229 : en:Chapter 20
00:40:37.393 : en:Chapter 21
00:44:20.741 : en:Chapter 22
00:46:09.058 : en:Chapter 23
00:50:14.053 : en:Chapter 24
00:52:17.301 : en:Chapter 25
00:54:20.924 : en:Chapter 26
00:57:40.957 : en:Chapter 27
01:00:58.613 : en:Chapter 28
01:03:43.445 : en:Chapter 29
01:05:46.776 : en:Chapter 30
01:08:12.839 : en:Chapter 31
01:13:24.900 : en:Chapter 32
01:16:40.554 : en:Chapter 33
01:18:24.783 : en:Chapter 34
01:19:46.532 : en:Chapter 35
01:22:56.597 : en:Chapter 36
01:25:39.217 : en:Chapter 37
01:27:51.933 : en:Chapter 38
01:30:29.341 : en:Chapter 39
01:34:40.466 : en:Chapter 40
01:38:29.570 : en:Chapter 41
01:40:26.812 : en:Chapter 42
01:41:46.767 : en:Chapter 43
01:43:52.101 : en:Chapter 44
01:47:03.208 : en:Chapter 45
01:49:22.139 : en:Chapter 46
01:53:42.357 : en:Chapter 47
01:56:15.510 : en:Chapter 48
01:59:47.263 : en:Chapter 49
02:01:58.895 : en:Chapter 50



BRRip 720p Screenshots

Star Wars: Episode V - The Empire Strikes Back (1980) [Remastered]

Star Wars: Episode V - The Empire Strikes Back (1980) [Remastered]

Star Wars: Episode V - The Empire Strikes Back (1980) [Remastered]


BRRip 1080p Screenshots

Star Wars: Episode V - The Empire Strikes Back (1980) [Remastered]

Star Wars: Episode V - The Empire Strikes Back (1980) [Remastered]

Star Wars: Episode V - The Empire Strikes Back (1980) [Remastered]


BDRip 720p Screenshots

Star Wars: Episode V - The Empire Strikes Back (1980) [Remastered]

Star Wars: Episode V - The Empire Strikes Back (1980) [Remastered]

Star Wars: Episode V - The Empire Strikes Back (1980) [Remastered]


BDRip 1080p Screenshots

Star Wars: Episode V - The Empire Strikes Back (1980) [Remastered]

Star Wars: Episode V - The Empire Strikes Back (1980) [Remastered]

Star Wars: Episode V - The Empire Strikes Back (1980) [Remastered]


Come Visit My Blog (•‿•)