Tags
Language
Tags
July 2024
Su Mo Tu We Th Fr Sa
30 1 2 3 4 5 6
7 8 9 10 11 12 13
14 15 16 17 18 19 20
21 22 23 24 25 26 27
28 29 30 31 1 2 3

Discovery Channel - Stem Cell Universe with Stephen Hawking (2014)

Posted By: Tutorial
SD / DVDRip
Discovery Channel - Stem Cell Universe with Stephen Hawking (2014)

Discovery Channel - Stem Cell Universe with Stephen Hawking (2014)
DVDRip | 832 x 468 | .MP4/AVC @ 2013 Kbps | 43 min 58 s | 675 MB
Audio: English AAC 128 Kbps, 2 channels | Subs: None
Genre: Documentary, Science

The use of embryonic stem cells has ignited fierce debate across the spiritual and political spectrum. But what if we could create manmade stem cells - or find super cells in adults that could forever replace embryonic cells and remove the controversy? Today, we are on the brink of a new era - an age where we may be able to cure our bodies of any illness. Stephen Hawking has spent his life exploring the mysteries of the cosmos, now there is another universe that fascinates him - the one hidden inside our bodies - our own personal galaxies of cells. Hawking takes us on a fascinating journey exploring what these wondrous and baffling mechanisms are capable of. He is joined by the scientists who are on the front lines of discovery in this field including Dr. Doris Taylor who is customizing a donor's heart with the recipient's stem cells - her goal is to revolutionize heart transplants, Dr. Paul Lu and Dr. Mark Tuszynski may have created a breakthrough that could cure paralysis, and Dr. Vincent Giampapa who believes that stem cells can be used to stem the tide of aging and create a fountain of youth.

also You can find my last: Science-posts

General
Complete name : Stem.Cell.Universe.with.Stephen.Hawking.mp4
Format : MPEG-4
Format profile : Base Media
Codec ID : isom (isom/iso2/avc1/mp41)
File size : 675 MiB
Duration : 43 min 58 s
Overall bit rate mode : Variable
Overall bit rate : 2 145 kb/s
Encoded date : UTC 2014-11-30 11:42:09
Tagged date : UTC 2014-11-30 11:42:09
Writing application : Lavf51.12.1

Video
ID : 1
Format : AVC
Format/Info : Advanced Video Codec
Format profile : Main@L3.1
Format settings, CABAC : Yes
Format settings, ReFrames : 1 frame
Format settings, GOP : M=1, N=12
Codec ID : avc1
Codec ID/Info : Advanced Video Coding
Duration : 43 min 58 s
Bit rate : 2 013 kb/s
Width : 832 pixels
Height : 468 pixels
Display aspect ratio : 16:9
Frame rate mode : Constant
Frame rate : 25.000 FPS
Color space : YUV
Chroma subsampling : 4:2:0
Bit depth : 8 bits
Scan type : Progressive
Bits/(Pixel*Frame) : 0.207
Stream size : 633 MiB (94%)
Language : English
Encoded date : UTC 2014-11-30 11:42:09
Tagged date : UTC 2014-11-30 11:42:09

Audio
ID : 2
Format : AAC
Format/Info : Advanced Audio Codec
Format profile : LC
Codec ID : 40
Duration : 43 min 58 s
Bit rate mode : Variable
Bit rate : 128 kb/s
Channel(s) : 2 channels
Channel positions : Front: L R
Sampling rate : 48.0 kHz
Frame rate : 46.875 FPS (1024 spf)
Compression mode : Lossy
Stream size : 40.2 MiB (6%)
Language : English
Encoded date : UTC 2014-11-30 11:42:09
Tagged date : UTC 2014-11-30 11:42:09
Screenshots

Discovery Channel - Stem Cell Universe with Stephen Hawking (2014)

Discovery Channel - Stem Cell Universe with Stephen Hawking (2014)

Discovery Channel - Stem Cell Universe with Stephen Hawking (2014)

Discovery Channel - Stem Cell Universe with Stephen Hawking (2014)

Discovery Channel - Stem Cell Universe with Stephen Hawking (2014)

Discovery Channel - Stem Cell Universe with Stephen Hawking (2014)

Welcome to my blog - daily update!