Tags
Language
Tags

Stranger Things S02E01-E09 (2017) [Complete Season]

Posted By: Without
Stranger Things S02E01-E09 (2017) [Complete Season]

Stranger Things S02E01-E09 (2017)
WEB-DL | MKV | 720x480 | AVC@~1000 kb/s | English AC3@128 kb/s
Subs: English, Dutch, French, German, Spanish | 2 channels | ~47 min | 9x~370 MB
WEB-DL 720p | MKV | 1280x720 | AVC@~2050 kb/s | English AC3@384 kb/s
Subs: English, Dutch, French, German, Spanish | 6 channels | ~47 min | 9x~950 MB
WEB-DL 1080p | MKV | 1920x1080 | AVC@~3830 kb/s | English AC3@384 kb/s
Subs: English, Dutch, French, German, Spanish | 6 channels | ~47 min | 9x~1.30 GB
Genre: Drama, Fantasy, Horror

When a young boy disappears, his mother, a police chief, and his friends must confront terrifying forces in order to get him back.

IMDB - Top Rated TV #38 | Nominated for 2 Golden Globes. Another 21 wins & 76 nominations.


General
Stranger.Things.S02E01.iNTERNAL.WEB.x264-STRiFE\stranger.things.s02e01.internal.web.x264-strife.mkv
Format : Matroska
Format version : Version 4 / Version 2
File size : 375 MiB
Duration : 47 min 49 s
Overall bit rate mode : Variable
Overall bit rate : 1 098 kb/s
Encoded date : UTC 2017-10-27 07:02:37
Writing application : mkvmerge v7.3.0 ('Nouages') 64bit built on Oct 23 2014 13:14:01
Writing library : libebml v1.3.0 + libmatroska v1.4.1

Video
ID : 1
Format : AVC
Format/Info : Advanced Video Codec
Format profile : Main@L3
Format settings, CABAC : Yes
Format settings, ReFrames : 3 frames
Codec ID : V_MPEG4/ISO/AVC
Duration : 47 min 49 s
Bit rate mode : Variable
Bit rate : 1 000 kb/s
Maximum bit rate : 1 500 kb/s
Width : 720 pixels
Height : 480 pixels
Display aspect ratio : 16:9
Frame rate mode : Constant
Frame rate : 23.976 (24000/1001) FPS
Color space : YUV
Chroma subsampling : 4:2:0
Bit depth : 8 bits
Scan type : Progressive
Bits/(Pixel*Frame) : 0.121
Stream size : 331 MiB (88%)
Writing library : x264 core 148
Encoding settings : cabac=1 / ref=3 / deblock=1:0:0 / analyse=0x1:0x111 / me=umh / subme=10 / psy=1 / psy_rd=1.00:0.00 / mixed_ref=1 / me_range=24 / chroma_me=1 / trellis=2 / 8x8dct=0 / cqm=0 / deadzone=21,11 / fast_pskip=1 / chroma_qp_offset=-2 / threads=8 / lookahead_threads=1 / sliced_threads=0 / nr=0 / decimate=1 / interlaced=0 / bluray_compat=0 / stitchable=1 / constrained_intra=0 / bframes=2 / b_pyramid=0 / b_adapt=2 / b_bias=0 / direct=3 / weightb=1 / open_gop=0 / weightp=2 / keyint=48 / keyint_min=25 / scenecut=0 / intra_refresh=0 / rc_lookahead=48 / rc=2pass / mbtree=1 / bitrate=1000 / ratetol=1.0 / qcomp=0.50 / qpmin=6 / qpmax=51 / qpstep=4 / cplxblur=20.0 / qblur=0.5 / vbv_maxrate=1500 / vbv_bufsize=2000 / nal_hrd=vbr / filler=0 / ip_ratio=1.40 / aq=1:1.00
Default : Yes
Forced : No

Audio
ID : 2
Format : E-AC-3
Format/Info : Enhanced Audio Coding 3
Format settings, Endianness : Big
Codec ID : A_EAC3
Duration : 47 min 49 s
Bit rate mode : Constant
Bit rate : 128 kb/s
Channel(s) : 2 channels
Channel positions : Front: L R
Sampling rate : 48.0 kHz
Frame rate : 187.500 FPS (256 spf)
Compression mode : Lossy
Stream size : 43.8 MiB (12%)
Language : English
Default : Yes
Forced : No

Text #1
ID : 3
Format : UTF-8
Codec ID : S_TEXT/UTF8
Codec ID/Info : UTF-8 Plain Text
Duration : 44 min 39 s
Bit rate : 61 b/s
Count of elements : 579
Stream size : 20.3 KiB (0%)
Language : English
Default : No
Forced : No

Text #2
ID : 4
Format : UTF-8
Codec ID : S_TEXT/UTF8
Codec ID/Info : UTF-8 Plain Text
Duration : 46 min 1 s
Bit rate : 42 b/s
Count of elements : 446
Stream size : 14.3 KiB (0%)
Language : Dutch
Default : No
Forced : No

Text #3
ID : 5
Format : UTF-8
Codec ID : S_TEXT/UTF8
Codec ID/Info : UTF-8 Plain Text
Duration : 46 min 17 s
Bit rate : 49 b/s
Count of elements : 505
Stream size : 16.8 KiB (0%)
Language : French
Default : No
Forced : No

Text #4
ID : 6
Format : UTF-8
Codec ID : S_TEXT/UTF8
Codec ID/Info : UTF-8 Plain Text
Duration : 46 min 32 s
Bit rate : 48 b/s
Count of elements : 508
Stream size : 16.7 KiB (0%)
Language : German
Default : No
Forced : No

Text #5
ID : 7
Format : UTF-8
Codec ID : S_TEXT/UTF8
Codec ID/Info : UTF-8 Plain Text
Duration : 44 min 52 s
Bit rate : 49 b/s
Count of elements : 510
Stream size : 16.2 KiB (0%)
Language : Spanish
Default : No
Forced : No

General
Stranger.Things.S02E02.iNTERNAL.720p.WEB.x264-STRiFE\stranger.things.s02e02.internal.720p.web.x264-strife.mkv
Format : Matroska
Format version : Version 4 / Version 2
File size : 956 MiB
Duration : 55 min 40 s
Overall bit rate mode : Variable
Overall bit rate : 2 400 kb/s
Encoded date : UTC 2017-10-27 07:04:46
Writing application : mkvmerge v7.3.0 ('Nouages') 64bit built on Oct 23 2014 13:14:01
Writing library : libebml v1.3.0 + libmatroska v1.4.1

Video
ID : 1
Format : AVC
Format/Info : Advanced Video Codec
Format profile : Main@L3.1
Format settings, CABAC : Yes
Format settings, ReFrames : 3 frames
Codec ID : V_MPEG4/ISO/AVC
Duration : 55 min 39 s
Bit rate mode : Variable
Bit rate : 2 050 kb/s
Maximum bit rate : 3 075 kb/s
Width : 1 280 pixels
Height : 720 pixels
Display aspect ratio : 16:9
Frame rate mode : Constant
Frame rate : 23.976 (24000/1001) FPS
Color space : YUV
Chroma subsampling : 4:2:0
Bit depth : 8 bits
Scan type : Progressive
Bits/(Pixel*Frame) : 0.093
Stream size : 802 MiB (84%)
Writing library : x264 core 148
Encoding settings : cabac=1 / ref=3 / deblock=1:0:0 / analyse=0x1:0x111 / me=umh / subme=10 / psy=1 / psy_rd=1.00:0.00 / mixed_ref=1 / me_range=24 / chroma_me=1 / trellis=2 / 8x8dct=0 / cqm=0 / deadzone=21,11 / fast_pskip=1 / chroma_qp_offset=-2 / threads=8 / lookahead_threads=1 / sliced_threads=0 / nr=0 / decimate=1 / interlaced=0 / bluray_compat=0 / stitchable=1 / constrained_intra=0 / bframes=2 / b_pyramid=0 / b_adapt=2 / b_bias=0 / direct=3 / weightb=1 / open_gop=0 / weightp=2 / keyint=48 / keyint_min=25 / scenecut=0 / intra_refresh=0 / rc_lookahead=48 / rc=2pass / mbtree=1 / bitrate=2050 / ratetol=1.0 / qcomp=0.50 / qpmin=6 / qpmax=51 / qpstep=4 / cplxblur=20.0 / qblur=0.5 / vbv_maxrate=3075 / vbv_bufsize=4100 / nal_hrd=vbr / filler=0 / ip_ratio=1.40 / aq=1:1.00
Default : Yes
Forced : No

Audio
ID : 2
Format : AC-3
Format/Info : Audio Coding 3
Mode extension : CM (complete main)
Format settings, Endianness : Big
Codec ID : A_AC3
Duration : 55 min 40 s
Bit rate mode : Constant
Bit rate : 384 kb/s
Channel(s) : 6 channels
Channel positions : Front: L C R, Side: L R, LFE
Sampling rate : 48.0 kHz
Frame rate : 31.250 FPS (1536 spf)
Bit depth : 16 bits
Compression mode : Lossy
Stream size : 153 MiB (16%)
Language : English
Default : Yes
Forced : No

Text #1
ID : 3
Format : UTF-8
Codec ID : S_TEXT/UTF8
Codec ID/Info : UTF-8 Plain Text
Duration : 54 min 21 s
Bit rate : 55 b/s
Count of elements : 705
Stream size : 22.2 KiB (0%)
Language : English
Default : No
Forced : No

Text #2
ID : 4
Format : UTF-8
Codec ID : S_TEXT/UTF8
Codec ID/Info : UTF-8 Plain Text
Duration : 54 min 21 s
Bit rate : 34 b/s
Count of elements : 469
Stream size : 13.5 KiB (0%)
Language : Dutch
Default : No
Forced : No

Text #3
ID : 5
Format : UTF-8
Codec ID : S_TEXT/UTF8
Codec ID/Info : UTF-8 Plain Text
Duration : 54 min 21 s
Bit rate : 40 b/s
Count of elements : 529
Stream size : 16.1 KiB (0%)
Language : French
Default : No
Forced : No

Text #4
ID : 6
Format : UTF-8
Codec ID : S_TEXT/UTF8
Codec ID/Info : UTF-8 Plain Text
Duration : 54 min 39 s
Bit rate : 39 b/s
Count of elements : 546
Stream size : 15.9 KiB (0%)
Language : German
Default : No
Forced : No

Text #5
ID : 7
Format : UTF-8
Codec ID : S_TEXT/UTF8
Codec ID/Info : UTF-8 Plain Text
Duration : 54 min 18 s
Bit rate : 39 b/s
Count of elements : 539
Stream size : 15.6 KiB (0%)
Language : Spanish
Default : No
Forced : No

General
Stranger.Things.S02E01.iNTERNAL.1080p.WEB.x264-STRiFE\stranger.things.s02e01.internal.1080p.web.x264-strife.mkv
Format : Matroska
Format version : Version 4 / Version 2
File size : 1.38 GiB
Duration : 47 min 49 s
Overall bit rate mode : Variable
Overall bit rate : 4 119 kb/s
Encoded date : UTC 2017-10-27 07:01:44
Writing application : mkvmerge v7.3.0 ('Nouages') 64bit built on Oct 23 2014 13:14:01
Writing library : libebml v1.3.0 + libmatroska v1.4.1

Video
ID : 1
Format : AVC
Format/Info : Advanced Video Codec
Format profile : Main@L4
Format settings, CABAC : Yes
Format settings, ReFrames : 3 frames
Codec ID : V_MPEG4/ISO/AVC
Duration : 47 min 49 s
Bit rate mode : Variable
Bit rate : 3 830 kb/s
Maximum bit rate : 5 745 kb/s
Width : 1 920 pixels
Height : 1 080 pixels
Display aspect ratio : 16:9
Frame rate mode : Constant
Frame rate : 23.976 (24000/1001) FPS
Color space : YUV
Chroma subsampling : 4:2:0
Bit depth : 8 bits
Scan type : Progressive
Bits/(Pixel*Frame) : 0.077
Stream size : 1.25 GiB (91%)
Writing library : x264 core 148
Encoding settings : cabac=1 / ref=3 / deblock=1:0:0 / analyse=0x1:0x111 / me=umh / subme=10 / psy=1 / psy_rd=1.00:0.00 / mixed_ref=1 / me_range=24 / chroma_me=1 / trellis=2 / 8x8dct=0 / cqm=0 / deadzone=21,11 / fast_pskip=1 / chroma_qp_offset=-2 / threads=8 / lookahead_threads=1 / sliced_threads=0 / nr=0 / decimate=1 / interlaced=0 / bluray_compat=0 / stitchable=1 / constrained_intra=0 / bframes=2 / b_pyramid=0 / b_adapt=2 / b_bias=0 / direct=3 / weightb=1 / open_gop=0 / weightp=2 / keyint=48 / keyint_min=25 / scenecut=0 / intra_refresh=0 / rc_lookahead=48 / rc=2pass / mbtree=1 / bitrate=3830 / ratetol=1.0 / qcomp=0.50 / qpmin=6 / qpmax=51 / qpstep=4 / cplxblur=20.0 / qblur=0.5 / vbv_maxrate=5745 / vbv_bufsize=7660 / nal_hrd=vbr / filler=0 / ip_ratio=1.40 / aq=1:1.00
Default : Yes
Forced : No

Audio
ID : 2
Format : AC-3
Format/Info : Audio Coding 3
Mode extension : CM (complete main)
Format settings, Endianness : Big
Codec ID : A_AC3
Duration : 47 min 49 s
Bit rate mode : Constant
Bit rate : 384 kb/s
Channel(s) : 6 channels
Channel positions : Front: L C R, Side: L R, LFE
Sampling rate : 48.0 kHz
Frame rate : 31.250 FPS (1536 spf)
Bit depth : 16 bits
Compression mode : Lossy
Stream size : 131 MiB (9%)
Language : English
Default : Yes
Forced : No

Text #1
ID : 3
Format : UTF-8
Codec ID : S_TEXT/UTF8
Codec ID/Info : UTF-8 Plain Text
Duration : 44 min 39 s
Bit rate : 61 b/s
Count of elements : 579
Stream size : 20.3 KiB (0%)
Language : English
Default : No
Forced : No

Text #2
ID : 4
Format : UTF-8
Codec ID : S_TEXT/UTF8
Codec ID/Info : UTF-8 Plain Text
Duration : 46 min 1 s
Bit rate : 42 b/s
Count of elements : 446
Stream size : 14.3 KiB (0%)
Language : Dutch
Default : No
Forced : No

Text #3
ID : 5
Format : UTF-8
Codec ID : S_TEXT/UTF8
Codec ID/Info : UTF-8 Plain Text
Duration : 46 min 17 s
Bit rate : 49 b/s
Count of elements : 505
Stream size : 16.8 KiB (0%)
Language : French
Default : No
Forced : No

Text #4
ID : 6
Format : UTF-8
Codec ID : S_TEXT/UTF8
Codec ID/Info : UTF-8 Plain Text
Duration : 46 min 32 s
Bit rate : 48 b/s
Count of elements : 508
Stream size : 16.7 KiB (0%)
Language : German
Default : No
Forced : No

Text #5
ID : 7
Format : UTF-8
Codec ID : S_TEXT/UTF8
Codec ID/Info : UTF-8 Plain Text
Duration : 44 min 52 s
Bit rate : 49 b/s
Count of elements : 510
Stream size : 16.2 KiB (0%)
Language : Spanish
Default : No
Forced : No


WEB-DL Screenshots

Stranger Things S02E01-E09 (2017) [Complete Season]

Stranger Things S02E01-E09 (2017) [Complete Season]

Stranger Things S02E01-E09 (2017) [Complete Season]


WEB-DL 720p Screenshots

Stranger Things S02E01-E09 (2017) [Complete Season]

Stranger Things S02E01-E09 (2017) [Complete Season]

Stranger Things S02E01-E09 (2017) [Complete Season]


WEB-DL 1080p Screenshots

Stranger Things S02E01-E09 (2017) [Complete Season]

Stranger Things S02E01-E09 (2017) [Complete Season]

Stranger Things S02E01-E09 (2017) [Complete Season]


Come Visit My Blog (•‿•)