Tags
Language
Tags

Stressed (2019)

Posted By: Tutorial
1080p (FullHD) / WEBRip IMDb
Stressed (2019)

Stressed (2019)
WEBRip | 1920 x 816 | .MKV/AVC @ 5185 Kbps | 1 h 2 min | 2.36 GB
Audio: English E-AC-3 224 Kbps, 2 channels | Subs: English
Genre: Documentary

A new exploration into emotional stress and its undeniable impact on humanity. The film delves into our history with stress, how we got to where we are today, and where we go from here. Featuring Dr. Daniel Monti (Director - Marcus Institute of Integrative Health) and leading neuroscientist Dr. Andrew Newberg (DMT: The Spirit Molecule), we get a fresh perspective on the effects of stress. Thanks to a new study from the Marcus Institute of Integrative Health at Thomas Jefferson University in Philadelphia, PA, there is now compelling evidence of a breakthrough intervention to help people to alleviate their emotional stress, as well as deeper insight into this exciting topic.

General
Unique ID : 306843043225858570491696571904565160507 (0xE6D7D20D7050D7601ED078F4E32BAA3B)
Complete name : Stressed.2019.2019.mkv
Format : Matroska
Format version : Version 4 / Version 2
File size : 2.36 GiB
Duration : 1 h 2 min
Overall bit rate : 5 411 kb/s
Encoded date : UTC 2019-01-18 18:59:03
Writing application : mkvmerge v30.1.0 ('Forever And More') 64-bit
Writing library : libebml v1.3.6 + libmatroska v1.4.9

Video
ID : 1
Format : AVC
Format/Info : Advanced Video Codec
Format profile : High@L4
Format settings, CABAC : Yes
Format settings, ReFrames : 4 frames
Codec ID : V_MPEG4/ISO/AVC
Duration : 1 h 2 min
Bit rate mode : Constant
Bit rate : 5 185 kb/s
Nominal bit rate : 10 000 kb/s
Width : 1 920 pixels
Height : 816 pixels
Display aspect ratio : 2.35:1
Frame rate mode : Constant
Frame rate : 23.976 (24000/1001) FPS
Color space : YUV
Chroma subsampling : 4:2:0
Bit depth : 8 bits
Scan type : Progressive
Bits/(Pixel*Frame) : 0.138
Stream size : 2.26 GiB (96%)
Default : Yes
Forced : No
Color range : Limited
Color primaries : BT.709
Transfer characteristics : BT.709
Matrix coefficients : BT.709

Audio
ID : 2
Format : E-AC-3
Format/Info : Enhanced Audio Coding 3
Format settings, Endianness : Big
Codec ID : A_EAC3
Duration : 1 h 2 min
Bit rate mode : Constant
Bit rate : 224 kb/s
Channel(s) : 2 channels
Channel positions : Front: L R
Sampling rate : 48.0 kHz
Frame rate : 187.500 FPS (256 spf)
Compression mode : Lossy
Stream size : 100 MiB (4%)
Language : English
Service kind : Complete Main
Default : Yes
Forced : No

Text #1
ID : 3
Format : UTF-8
Codec ID : S_TEXT/UTF8
Codec ID/Info : UTF-8 Plain Text
Duration : 1 h 1 min
Bit rate : 115 b/s
Count of elements : 1239
Stream size : 51.7 KiB (0%)
Language : English
Default : No
Forced : No

Text #2
ID : 4
Format : UTF-8
Codec ID : S_TEXT/UTF8
Codec ID/Info : UTF-8 Plain Text
Duration : 1 h 2 min
Bit rate : 114 b/s
Count of elements : 1263
Stream size : 52.3 KiB (0%)
Title : SDH
Language : English
Default : No
Forced : No
Screenshots

Stressed (2019)

Stressed (2019)

Stressed (2019)

Welcome to my blog - daily update!

Stressed (2019)