Subcategories

Stretch and Bobbito: Radio That Changed Lives (2015)

Posted By: Tutorial
Stretch and Bobbito: Radio That Changed Lives (2015)

Stretch and Bobbito: Radio That Changed Lives (2015)
WEBRip | 1920 x 1080 | .MKV/AVC @ 10.2 Mbps | 1 h 38 mn | 7.28 GB
Audio: English AC-3 384 Kbps, 6 channels | Subs: English
Genre: Documentary, Music

Stretch and Bobbito: Radio That Changed Lives explores the social impact of what the Source Magazine in 1998 voted, "The Best Hip Hop Radio Show Of All-Time." The documentary film is the story of quirky friends who became unlikely legends by engaging their listeners and breaking the biggest rap artists ever.
Director: Bobbito Garcia
Writer: Bobbito Garcia
Stars: Common, Rosario Dawson, DJ Premier

More info: IMDB

also You can look my other last: Music-posts

General
Unique ID : 207760096127156461694564924868013111578 (0x9C4D2397FEA931D7A1ADD70385ECB91A)
Complete name : Stretch.and.Bobbito.Radio.That.Changed.Lives.2015.mkv
Format : Matroska
Format version : Version 4 / Version 2
File size : 7.28 GiB
Duration : 1 h 38 min
Overall bit rate : 10.6 Mb/s
Encoded date : UTC 2017-05-30 11:44:36
Writing application : mkvmerge v9.8.0 ('Kuglblids') 64bit
Writing library : libebml v1.3.4 + libmatroska v1.4.5

Video
ID : 1
Format : AVC
Format/Info : Advanced Video Codec
Format profile : High@L4.1
Format settings, CABAC : Yes
Format settings, ReFrames : 4 frames
Codec ID : V_MPEG4/ISO/AVC
Duration : 1 h 38 min
Bit rate : 10.2 Mb/s
Width : 1 920 pixels
Height : 1 080 pixels
Display aspect ratio : 16:9
Frame rate mode : Constant
Frame rate : 23.976 (24000/1001) FPS
Color space : YUV
Chroma subsampling : 4:2:0
Bit depth : 8 bits
Scan type : Progressive
Bits/(Pixel*Frame) : 0.205
Stream size : 7.02 GiB (96%)
Writing library : x264 core 150 r2833 df79067
Encoding settings : cabac=1 / ref=4 / deblock=1:-3:-3 / analyse=0x3:0x133 / me=umh / subme=11 / psy=1 / psy_rd=1.05:0.15 / mixed_ref=1 / me_range=16 / chroma_me=1 / trellis=2 / 8x8dct=1 / cqm=0 / deadzone=21,11 / fast_pskip=0 / chroma_qp_offset=-3 / threads=12 / lookahead_threads=1 / sliced_threads=0 / nr=0 / decimate=1 / interlaced=0 / bluray_compat=0 / constrained_intra=0 / bframes=3 / b_pyramid=2 / b_adapt=2 / b_bias=0 / direct=3 / weightb=1 / open_gop=0 / weightp=2 / keyint=250 / keyint_min=24 / scenecut=40 / intra_refresh=0 / rc_lookahead=50 / rc=crf / mbtree=1 / crf=17.0 / qcomp=0.60 / qpmin=0 / qpmax=69 / qpstep=4 / ip_ratio=1.40 / aq=3:0.65
Language : English
Default : Yes
Forced : No

Audio
ID : 2
Format : AC-3
Format/Info : Audio Coding 3
Format settings, Endianness : Big
Codec ID : A_AC3
Duration : 1 h 38 min
Bit rate mode : Constant
Bit rate : 384 kb/s
Channel(s) : 6 channels
Channel positions : Front: L C R, Side: L R, LFE
Sampling rate : 48.0 kHz
Frame rate : 31.250 FPS (1536 spf)
Bit depth : 16 bits
Compression mode : Lossy
Stream size : 271 MiB (4%)
Language : English
Service kind : Complete Main
Default : Yes
Forced : No
Screenshots

Stretch and Bobbito: Radio That Changed Lives (2015)

Stretch and Bobbito: Radio That Changed Lives (2015)

Stretch and Bobbito: Radio That Changed Lives (2015)

Stretch and Bobbito: Radio That Changed Lives (2015)

Welcome to my blog - daily update!

Stretch and Bobbito: Radio That Changed Lives (2015)